<?xml version="1.0" standalone="no"?>
<!DOCTYPE svg PUBLIC "-//W3C//DTD SVG 1.1//EN" "http://www.w3.org/Graphics/SVG/1.1/DTD/svg11.dtd" >
<svg xmlns="http://www.w3.org/2000/svg" xmlns:xlink="http://www.w3.org/1999/xlink" version="1.1">
<metadata>
Created by FontForge 20170731 at Thu Jul 27 12:32:29 2017
 By Aleksey,,,
Copyright c 2017 Hankook Tire Co.,Ltd. all rights reserved. Font designed by Sandoll Communications Inc.
</metadata>
<defs>
<font id="HankookTTFMediumOblique" horiz-adv-x="582" >
  <font-face 
    font-family="Hankook TTF Medium Oblique"
    font-weight="500"
    font-style="oblique"
    font-stretch="normal"
    units-per-em="1000"
    panose-1="2 11 6 0 0 1 1 1 1 1"
    ascent="800"
    descent="-200"
    x-height="552"
    cap-height="750"
    bbox="-185 -284 1463.7 1146"
    underline-thickness="50"
    underline-position="-150"
    unicode-range="U+000D-206F"
  />
<missing-glyph horiz-adv-x="280" 
 />
    <glyph glyph-name=".notdef" horiz-adv-x="280" 
 />
    <glyph glyph-name=".null" horiz-adv-x="0" 
 />
    <glyph glyph-name="nonmarkingreturn" unicode="&#xd;" horiz-adv-x="280" 
 />
    <glyph glyph-name="NULL" horiz-adv-x="0" 
 />
    <glyph glyph-name="NULL" horiz-adv-x="0" 
 />
    <glyph glyph-name="space" unicode=" " horiz-adv-x="260" 
 />
    <glyph glyph-name="exclam" unicode="!" horiz-adv-x="279" 
d="M266 750l-119 -533h-77l87 533h109zM31 125h117l-23 -125h-117z" />
    <glyph glyph-name="quotedbl" unicode="&#x22;" horiz-adv-x="388" 
d="M234 750l-60 -247h-85l36 247h109zM407 750l-60 -247h-85l36 247h109z" />
    <glyph glyph-name="numbersign" unicode="#" horiz-adv-x="694" 
d="M651 750l-76 -189h129l-18 -89h-146l-71 -178h128l-17 -89h-147l-81 -205h-79l81 205h-152l-81 -205h-79l82 205h-129l17 89h147l71 178h-129l18 89h147l76 189h78l-76 -189h152l76 189h79zM238 294h152l71 178h-152z" />
    <glyph glyph-name="dollar" unicode="$" horiz-adv-x="641" 
d="M575 635q-35 11 -77.5 15t-80.5 5l-47 -242l14 -4q99 -28 135 -75.5t21 -123.5q-9 -43 -25 -78t-44.5 -60t-72 -39.5t-106.5 -17.5l-16 -86h-65l16 85q-24 1 -51.5 3.5t-55.5 7t-55.5 11t-50.5 15.5l16 83q63 -20 115.5 -27.5t98.5 -8.5l48 245l-39 11q-82 22 -118 67.5
t-19 129.5q10 49 30 83.5t51 56.5t73.5 32t97.5 12l15 75h65l-15 -75q45 -2 87 -8t71 -16zM204 543q-5 -25 -1 -42.5t16 -30t32.5 -21.5t49.5 -17l8 -2l43 223q-39 -3 -65.5 -10.5t-43 -21t-25.5 -33t-14 -45.5zM451 212q4 24 2 41t-13 30t-32 23t-55 20l-44 -226
q36 3 61 12.5t41.5 23.5t25.5 33.5t14 42.5z" />
    <glyph glyph-name="percent" unicode="%" horiz-adv-x="820" 
d="M53 0l618 736h96l-618 -736h-96zM397 512q-14 -72 -60.5 -109.5t-121.5 -37.5q-77 0 -115.5 41.5t-24.5 113.5l14 69q14 72 60 110t123 38q75 0 114 -42t25 -114zM325 579q8 45 -7.5 61.5t-53.5 16.5q-37 0 -59.5 -16.5t-31.5 -61.5l-12 -57q-9 -43 8 -60t54 -17
q38 0 60 17t30 60zM726 135q-14 -72 -60.5 -109.5t-121.5 -37.5q-77 0 -115.5 41.5t-24.5 113.5l14 69q14 72 60 110t123 38q75 0 114 -42t25 -114zM654 202q9 45 -7 61.5t-54 16.5q-37 0 -59.5 -16.5t-31.5 -61.5l-12 -57q-8 -43 8.5 -60t53.5 -17q38 0 60 17t30 60z" />
    <glyph glyph-name="ampersand" unicode="&#x26;" horiz-adv-x="685" 
d="M209 541q-10 -50 9.5 -80.5t78.5 -30.5h361l-17 -85h-82l-62 -317q-60 -22 -119.5 -30t-119.5 -8q-71 0 -119 17.5t-74.5 49t-33.5 75t3 94.5q22 121 135 162q-25 12 -39 31t-20 41.5t-5.5 46.5t5.5 47q19 101 86 146.5t189 45.5q25 0 51.5 -2t51 -5t45 -7.5t35.5 -10.5
l-17 -84q-37 11 -74 15.5t-82 4.5q-47 0 -79.5 -6.5t-54 -21t-34 -36.5t-18.5 -52zM460 345h-185q-57 0 -91.5 -33t-45.5 -90q-7 -33 -5 -59t17.5 -44t46.5 -28t83 -10q15 0 32.5 1t35.5 2.5t34.5 4.5t29.5 7z" />
    <glyph glyph-name="quotesingle" unicode="'" horiz-adv-x="215" 
d="M234 750l-60 -247h-85l36 247h109z" />
    <glyph glyph-name="parenleft" unicode="(" horiz-adv-x="340" 
d="M77 419q26 131 80 235.5t141 176.5h111q-51 -44 -89.5 -95.5t-66.5 -106.5t-46.5 -111t-28.5 -108l-29 -147q-10 -53 -13.5 -109.5t3 -112.5t24.5 -108.5t52 -96.5h-108q-29 46 -46 100.5t-23 112t-2.5 117t14.5 116.5z" />
    <glyph glyph-name="parenright" unicode=")" horiz-adv-x="340" 
d="M246 248q-26 -131 -80 -235.5t-141 -176.5h-111q51 43 89.5 95t66.5 107t46.5 111t28.5 108l29 147q10 52 13.5 109t-3 113t-24.5 108.5t-52 96.5h108q29 -47 46 -101t23 -111.5t2.5 -117t-14.5 -116.5z" />
    <glyph glyph-name="asterisk" unicode="*" horiz-adv-x="452" 
d="M216 495l-130 -81l-25 79l142 62l-119 60l56 73l95 -81l19 142h88l-37 -142l127 81l26 -79l-142 -62l119 -60l-57 -73l-95 81l-18 -142h-88z" />
    <glyph glyph-name="plus" unicode="+" horiz-adv-x="568" 
d="M377 600l-40 -206h191l-19 -94h-191l-42 -216h-99l42 216h-191l19 94h191l40 206h99z" />
    <glyph glyph-name="comma" unicode="," horiz-adv-x="275" 
d="M32 125h122l-121 -262h-91z" />
    <glyph glyph-name="hyphen" unicode="-" horiz-adv-x="301" 
d="M1 238l20 100h243l-20 -100h-243z" />
    <glyph glyph-name="period" unicode="." horiz-adv-x="270" 
d="M27 125h116l-23 -125h-116z" />
    <glyph glyph-name="slash" unicode="/" horiz-adv-x="463" 
d="M-110 -164l556 995h102l-557 -995h-101z" />
    <glyph glyph-name="zero" unicode="0" horiz-adv-x="610" 
d="M555 296q-16 -81 -43 -138.5t-66.5 -95t-93 -55t-121.5 -17.5q-138 0 -185.5 86.5t-15.5 246.5l25 127q31 160 110.5 232.5t212.5 72.5q138 0 185.5 -86t16.5 -246zM479 431q13 66 12 110t-16 70t-44 37t-71 11q-41 0 -73.5 -11t-57.5 -37.5t-43.5 -70t-31.5 -109.5
l-23 -117q-13 -67 -12 -111t16 -70.5t43.5 -37t69.5 -10.5q42 0 75 10.5t58 37t43.5 70.5t31.5 111z" />
    <glyph glyph-name="one" unicode="1" horiz-adv-x="610" 
d="M46 0l17 92h169l103 529l-192 -87l21 107l225 104h72l-127 -653h155l-17 -92h-426z" />
    <glyph glyph-name="two" unicode="2" horiz-adv-x="610" 
d="M-21 0l17 93l333 277q34 29 57 50.5t37.5 41t23 39.5t13.5 46l3 15q5 26 1.5 44.5t-19 30t-44 17t-72.5 5.5q-51 0 -107.5 -10.5t-100.5 -27.5l19 97q19 7 44.5 13.5t53 11.5t56.5 8.5t55 3.5q132 0 183.5 -51t34.5 -139l-3 -16q-8 -40 -21.5 -70.5t-35 -59t-53 -57.5
t-74.5 -65l-245 -203h364l-17 -94h-503z" />
    <glyph glyph-name="three" unicode="3" horiz-adv-x="610" 
d="M177 336l17 90h109q70 0 109.5 39t39.5 117q0 43 -27.5 60t-96.5 17q-47 0 -103.5 -9t-102.5 -25l18 95q39 14 95 24.5t116 10.5q57 0 96.5 -10.5t64 -30t35.5 -48t11 -63.5q0 -16 -3 -47t-17 -65t-43.5 -65t-82.5 -46q54 -14 78.5 -44t24.5 -78q0 -71 -21.5 -122
t-62 -83.5t-97.5 -47.5t-128 -15q-32 0 -64 3t-61 8.5t-53.5 12t-41.5 14.5l19 96q19 -8 44.5 -15t54 -12t57.5 -8t55 -3q53 0 89.5 12t59 34t32.5 53t10 69q0 26 -8.5 42t-24 25t-38.5 12t-52 3h-107z" />
    <glyph glyph-name="four" unicode="4" horiz-adv-x="610" 
d="M-17 164l17 90l422 491h128l-95 -490h107l-18 -91h-107l-31 -164h-100l31 164h-354zM355 255l72 374l-316 -374h244z" />
    <glyph glyph-name="five" unicode="5" horiz-adv-x="610" 
d="M179 745h407l-18 -95h-310l-43 -200q23 3 51.5 5.5t54.5 2.5q69 0 112.5 -18t67 -48t29 -70t-3.5 -83l-10 -50q-19 -95 -91.5 -147t-206.5 -52q-70 0 -130 11.5t-93 26.5l19 96q39 -16 94 -27t118 -11q83 0 131.5 32.5t59.5 92.5l6 31q7 36 2 60t-23.5 38.5t-50.5 20.5
t-80 6q-19 0 -42 -1.5t-47 -4t-48 -6t-45 -7.5z" />
    <glyph glyph-name="six" unicode="6" horiz-adv-x="610" 
d="M62 442q19 101 55.5 162.5t83 95t101 44.5t109.5 11q59 0 102.5 -9.5t73.5 -20.5l-19 -95q-38 16 -82 22.5t-76 6.5q-47 0 -86.5 -9t-70.5 -33.5t-54 -69t-36 -116.5l-4 -18q42 26 92.5 42t103.5 16q54 0 95.5 -14t67.5 -41t35.5 -67t0.5 -92l-8 -44q-9 -47 -29.5 -87.5
t-56 -70.5t-87.5 -47.5t-122 -17.5q-140 0 -190.5 87.5t-20.5 247.5zM331 374q-42 0 -92 -13.5t-98 -44.5q-12 -64 -10.5 -108t16 -71.5t42 -39.5t69.5 -12q45 0 78 11t55.5 29.5t36 43.5t18.5 53l7 37q12 65 -20 90t-102 25z" />
    <glyph glyph-name="seven" unicode="7" horiz-adv-x="610" 
d="M622 662l-447 -662h-116l445 650h-402l18 95h518z" />
    <glyph glyph-name="eight" unicode="8" horiz-adv-x="610" 
d="M183 378q-47 16 -70.5 51t-23.5 83q0 113 74.5 178t209.5 65q112 0 169.5 -44t57.5 -119q0 -83 -43.5 -136t-117.5 -81q59 -21 85 -55.5t26 -80.5q0 -54 -20 -99.5t-58 -79t-95 -52t-130 -18.5q-66 0 -112 13t-75 35.5t-42 53t-13 65.5q0 43 13.5 78.5t37.5 63t56.5 47.5
t70.5 32zM279 338l-20 -8q-38 -14 -65.5 -28.5t-45.5 -33t-26.5 -41.5t-8.5 -54q0 -42 32.5 -66t107.5 -24q95 0 141.5 39.5t46.5 103.5q0 37 -26.5 63t-92.5 40zM197 517q0 -34 20 -53t67 -31l63 -16l42 19q24 11 43 22.5t33 27.5t21.5 37.5t7.5 53.5q0 40 -28.5 62.5
t-99.5 22.5q-79 0 -124 -36.5t-45 -108.5z" />
    <glyph glyph-name="nine" unicode="9" horiz-adv-x="610" 
d="M548 307q-19 -101 -55.5 -163t-83 -96.5t-101 -46t-109.5 -11.5q-59 0 -102.5 9.5t-73.5 20.5l19 95q38 -16 82 -22.5t76 -6.5q47 0 86.5 9t70.5 33.5t53 69t36 116.5l3 18q-41 -26 -91 -42t-103 -16q-54 0 -95.5 14t-67.5 41t-35.5 67t-0.5 92l8 44q9 46 29.5 87
t55.5 71t86.5 47.5t122.5 17.5q140 0 191 -85.5t21 -245.5zM279 371q42 0 91.5 13t97.5 44q12 64 10.5 108.5t-16 72t-42 39.5t-69.5 12q-48 0 -81 -11t-55 -30t-34 -43.5t-17 -52.5l-7 -37q-12 -65 20 -90t102 -25z" />
    <glyph glyph-name="colon" unicode=":" horiz-adv-x="270" 
d="M27 125h116l-23 -125h-116zM101 503h116l-24 -125h-116z" />
    <glyph glyph-name="semicolon" unicode=";" horiz-adv-x="270" 
d="M101 503h116l-24 -125h-116zM32 125h122l-121 -262h-91z" />
    <glyph glyph-name="less" unicode="&#x3c;" horiz-adv-x="622" 
d="M196 362l-2 -9l310 -168l-19 -94l-411 234l15 83l503 234l-21 -111z" />
    <glyph glyph-name="equal" unicode="=" horiz-adv-x="598" 
d="M64 414l20 97h481l-20 -97h-481zM20 186l20 97h481l-20 -97h-481z" />
    <glyph glyph-name="greater" unicode="&#x3e;" horiz-adv-x="622" 
d="M420 371l2 9l-310 168l19 94l411 -234l-15 -83l-503 -234l21 111z" />
    <glyph glyph-name="question" unicode="?" horiz-adv-x="501" 
d="M142 209l9 48q7 34 17.5 58t27.5 43t43.5 36.5t64.5 40.5q23 14 39 25.5t26.5 25t17.5 30t12 40.5q5 30 3 50.5t-15 33t-38.5 18.5t-65.5 6q-50 0 -99 -12t-93 -29l17 92q38 17 85 29.5t101 12.5q65 0 108.5 -14.5t68 -41t30.5 -64.5t-3 -86q-9 -45 -25 -74.5t-35 -50
t-39.5 -33.5t-39.5 -25q-32 -20 -51 -32.5t-30.5 -23.5t-17 -24t-9.5 -33l-9 -46h-100zM117 125h116l-23 -125h-116z" />
    <glyph glyph-name="at" unicode="@" horiz-adv-x="994" 
d="M745 -132q-38 -11 -74 -19.5t-72.5 -14t-76.5 -8.5t-85 -3q-119 0 -203.5 28t-135 80.5t-66 127.5t2.5 170l24 121q37 192 165 289.5t332 97.5q110 0 190 -27t128 -78.5t63 -126t-3 -169.5l-12 -65q-9 -46 -24.5 -87.5t-41 -73t-64 -50t-93.5 -18.5q-19 0 -37.5 4t-34 12
t-27 20t-16.5 28q-29 -23 -73.5 -43.5t-106.5 -20.5q-47 0 -77 13.5t-45.5 37.5t-19 57t4.5 71l22 114q10 52 27 87.5t41.5 56.5t56.5 30t72 9q19 0 40.5 -3t41 -8t35.5 -12t24 -16l4 19l97 20l-65 -334q-5 -29 6 -47t39 -18q53 0 84.5 36.5t48.5 121.5l15 76q16 82 2.5 140
t-53 95.5t-104 55t-150.5 17.5q-77 0 -145.5 -19.5t-122.5 -59t-92 -99.5t-53 -141l-23 -120q-17 -86 -1.5 -147t58 -100t110 -57t156.5 -18q46 0 86.5 2.5t79.5 8t77 14t79 20.5zM613 403q-17 13 -49 23.5t-66 10.5q-24 0 -42.5 -4t-32.5 -15.5t-23.5 -32t-16.5 -54.5
l-17 -85q-5 -26 -6 -48t5 -38t19.5 -25t37.5 -9q42 0 81.5 17.5t66.5 35.5z" />
    <glyph glyph-name="A" unicode="A" horiz-adv-x="667" 
d="M585 0h-108l-33 211h-287l-112 -211h-108l411 750h100zM207 305h221l-27 195q-5 35 -10 67.5t-8 71.5q-17 -39 -34.5 -72t-35.5 -67z" />
    <glyph glyph-name="B" unicode="B" horiz-adv-x="637" 
d="M150 750h249q55 0 97 -9t68 -30t35 -56.5t-1 -88.5l-7 -38q-9 -45 -33.5 -79.5t-84.5 -53.5q30 -6 49.5 -21t30 -35.5t12.5 -45.5t-4 -52l-15 -77q-10 -54 -30 -86.5t-54 -49.5t-83 -22.5t-118 -5.5h-256zM173 347l-49 -257h149q49 0 80.5 4.5t51 16t29 31.5t15.5 50
l10 52q11 56 -15 79.5t-107 23.5h-164zM235 660l-45 -229h155q27 0 50.5 3.5t42.5 14t32.5 30.5t19.5 53l7 41q5 28 2 45t-17 26.5t-39.5 12.5t-65.5 3h-142z" />
    <glyph glyph-name="C" unicode="C" horiz-adv-x="602" 
d="M605 647q-14 5 -33 9t-41.5 6.5t-47 4t-47.5 1.5q-76 0 -124 -18t-77.5 -48.5t-44 -71.5t-23.5 -86l-26 -131q-9 -47 -11.5 -89t14 -73.5t58 -49.5t119.5 -18q39 0 88 4.5t102 20.5l-17 -89q-48 -18 -97.5 -24.5t-89.5 -6.5q-91 0 -150.5 19t-92 60t-38 104t11.5 152
l24 122q18 94 50.5 155.5t79 97.5t108 50t139.5 14q48 0 99 -5.5t85 -19.5z" />
    <glyph glyph-name="D" unicode="D" horiz-adv-x="695" 
d="M5 0l145 750h240q91 0 149.5 -19t89 -60.5t35 -106.5t-13.5 -156l-19 -98q-18 -90 -42.5 -150t-65 -95.5t-101.5 -50t-152 -14.5h-265zM234 655l-109 -560h148q70 0 115 14t72.5 41t42 67t24.5 93l24 122q10 52 11.5 93t-14.5 70t-54 44.5t-107 15.5h-153z" />
    <glyph glyph-name="E" unicode="E" horiz-adv-x="593" 
d="M612 750l-18 -95h-360l-43 -221h328l-18 -93h-328l-48 -246h374l-18 -95h-476l145 750h462z" />
    <glyph glyph-name="F" unicode="F" horiz-adv-x="561" 
d="M604 750l-18 -96h-352l-48 -240h322l-18 -96h-322l-61 -318h-102l145 750h454z" />
    <glyph glyph-name="G" unicode="G" horiz-adv-x="671" 
d="M611 648q-15 5 -35 8.5t-43 6t-46 4t-44 1.5q-80 0 -129.5 -17.5t-79 -48t-44 -71.5t-23.5 -87l-26 -133q-11 -51 -12.5 -93.5t16.5 -72.5t62.5 -46.5t125.5 -16.5q29 0 61.5 3t60.5 11l45 221h-151l17 91h252l-75 -385q-26 -10 -56.5 -16.5t-61.5 -10.5t-60 -6t-53 -2
q-91 0 -151.5 18.5t-94 58t-40 102.5t10.5 152l24 121q18 94 49.5 156t78 99t110 52t146.5 15q22 0 47 -1t49.5 -4t47 -7.5t40.5 -11.5z" />
    <glyph glyph-name="H" unicode="H" horiz-adv-x="711" 
d="M706 750l-145 -750h-102l66 341h-352l-66 -341h-102l145 750h102l-61 -313h352l61 313h102z" />
    <glyph glyph-name="I" unicode="I" horiz-adv-x="250" 
d="M100 0h-102l145 750h102z" />
    <glyph glyph-name="J" unicode="J" horiz-adv-x="397" 
d="M397 750l-111 -571q-10 -51 -25 -87t-40.5 -59t-64.5 -34t-96 -11q-14 0 -30.5 1.5t-33.5 4t-31.5 5.5t-23.5 7l19 94q29 -10 57 -13t50 -3q50 0 78 23.5t40 85.5l109 557h103z" />
    <glyph glyph-name="K" unicode="K" horiz-adv-x="639" 
d="M349 382l213 -382h-117l-180 331h-94l-64 -331h-102l145 750h102l-63 -325h84l282 325h124z" />
    <glyph glyph-name="L" unicode="L" horiz-adv-x="566" 
d="M252 750l-127 -652h356l-18 -98h-458l145 750h102z" />
    <glyph glyph-name="M" unicode="M" horiz-adv-x="841" 
d="M690 0h-102l99 512q6 29 18.5 69.5t24.5 78.5q-14 -45 -31 -82.5t-33 -68.5l-262 -509h-110l-69 510q-5 31 -4.5 64.5t3.5 84.5q-5 -37 -10 -77.5t-11 -70.5l-99 -511h-99l145 750h132l76 -536q4 -28 6 -56t3 -60q12 32 24.5 59.5t26.5 54.5l272 538h145z" />
    <glyph glyph-name="N" unicode="N" horiz-adv-x="700" 
d="M550 0h-110l-186 498q-8 23 -16.5 50t-16.5 61l-117 -609h-99l145 750h110l185 -497q5 -13 9 -24.5t8 -24t8 -28t8 -36.5l118 610h99z" />
    <glyph glyph-name="O" unicode="O" horiz-adv-x="729" 
d="M670 319q-32 -163 -125 -247t-245 -84q-76 0 -132.5 22.5t-90 66t-44 107t5.5 144.5l20 104q32 162 125 246t246 84q76 0 132 -22.5t89.5 -66t44 -106.5t-5.5 -144zM586 421q13 67 7.5 113.5t-27.5 75.5t-58.5 42.5t-85.5 13.5t-91 -13.5t-75.5 -42.5t-57.5 -75.5
t-37 -113.5l-18 -92q-13 -67 -7 -113.5t28 -76t59 -42.5t85 -13q49 0 90.5 13t75 42.5t57.5 76t37 113.5z" />
    <glyph glyph-name="P" unicode="P" horiz-adv-x="638" 
d="M150 750h255q58 0 104.5 -8t76.5 -31t41 -63.5t-1 -104.5l-9 -47q-12 -61 -33.5 -99.5t-56.5 -60.5t-85 -30.5t-119 -8.5h-159l-57 -297h-102zM234 657l-52 -269h144q51 0 84.5 5t54.5 17t32 32.5t17 52.5l12 63q5 27 2.5 46t-16.5 30.5t-40.5 17t-69.5 5.5h-168z" />
    <glyph glyph-name="Q" unicode="Q" horiz-adv-x="729" 
d="M670 319q-38 -193 -161 -274l72 -148h-108l-52 107q-28 -8 -58 -12t-63 -4q-76 0 -132.5 22.5t-90 66t-44 107t5.5 144.5l20 104q32 162 125 246t246 84q76 0 132 -22.5t89.5 -66t44 -106.5t-5.5 -144zM414 241l52 -108q36 29 62 76.5t40 119.5l18 92q13 67 7.5 113.5
t-27.5 75.5t-58.5 42.5t-85.5 13.5t-91 -13.5t-75.5 -42.5t-57.5 -75.5t-37 -113.5l-18 -92q-13 -67 -7 -113.5t28 -76t59 -42.5t85 -13q35 0 70 8l-72 149h108z" />
    <glyph glyph-name="R" unicode="R" horiz-adv-x="651" 
d="M150 750h258q58 0 104 -8.5t75.5 -31.5t40 -64t-1.5 -105l-7 -38q-8 -42 -20.5 -73.5t-31.5 -54t-46 -37t-64 -21.5l93 -317h-106l-85 306h-193l-59 -306h-102zM234 657l-50 -260h144q49 0 82 5t54.5 17t33.5 32.5t18 52.5l10 54q5 27 2.5 45.5t-16 30.5t-40.5 17.5
t-70 5.5h-168z" />
    <glyph glyph-name="S" unicode="S" horiz-adv-x="585" 
d="M507 191q-9 -46 -26.5 -83t-49.5 -63.5t-82 -40.5t-125 -14q-61 0 -122.5 8t-121.5 31l18 96q69 -26 130.5 -33.5t99.5 -7.5q47 0 78.5 8t52 23t31 36.5t15.5 47.5q5 25 5 44t-10 33.5t-31.5 26t-60.5 22.5l-85 23q-80 22 -115 74.5t-17 144.5q10 51 29.5 88t52.5 60
t80.5 34t112.5 11q27 0 56 -1.5t56.5 -5t51.5 -8t40 -10.5l-18 -88q-39 11 -86.5 15.5t-87.5 4.5q-52 0 -85.5 -6.5t-54.5 -20t-31 -35t-16 -52.5q-5 -25 -3.5 -43t10.5 -32t27.5 -24t47.5 -18l83 -23q59 -16 93 -38t49.5 -49.5t16 -61t-7.5 -73.5z" />
    <glyph glyph-name="T" unicode="T" horiz-adv-x="602" 
d="M73 654l18 96h565l-18 -96h-231l-127 -654h-103l127 654h-231z" />
    <glyph glyph-name="U" unicode="U" horiz-adv-x="716" 
d="M244 750l-90 -466q-11 -56 -7.5 -94t21.5 -61t51 -32.5t81 -9.5q50 0 87.5 9.5t64.5 32.5t45.5 61t29.5 94l90 466h104l-92 -477q-14 -75 -39 -128.5t-65.5 -88.5t-97.5 -51.5t-136 -16.5q-299 0 -240 302l89 460h104z" />
    <glyph glyph-name="V" unicode="V" horiz-adv-x="654" 
d="M176 750l74 -474q7 -37 12.5 -73.5t8.5 -79.5q17 42 36.5 79t39.5 74l260 474h111l-416 -750h-102l-130 750h106z" />
    <glyph glyph-name="W" unicode="W" horiz-adv-x="928" 
d="M511 438q-2 31 -3.5 79t2.5 95q-17 -48 -36.5 -94.5t-33.5 -77.5l-199 -440h-104l-52 750h104l24 -473q1 -15 1.5 -30.5t0.5 -33.5v-39.5t-1 -49.5q10 31 18.5 53t15.5 39t13 31.5t13 29.5l210 473h95l34 -473q2 -30 3 -62.5t-1 -86.5q9 28 16.5 49t14 38t12.5 32t13 30
l211 473h107l-348 -750h-98z" />
    <glyph glyph-name="X" unicode="X" horiz-adv-x="640" 
d="M358 207q-11 29 -20 55.5t-21 63.5q-26 -36 -47 -64t-42 -55l-157 -207h-121l301 385l-147 365h113l72 -204q9 -25 17.5 -50t19.5 -60q26 35 43.5 59t38.5 52l152 203h120l-289 -365l154 -385h-109z" />
    <glyph glyph-name="Y" unicode="Y" horiz-adv-x="586" 
d="M336 316l-61 -316h-103l60 314l-153 436h107l68 -222q5 -17 9.5 -31.5t9 -31t10 -35t11.5 -42.5q27 48 49 80t42 60l152 222h115z" />
    <glyph glyph-name="Z" unicode="Z" horiz-adv-x="590" 
d="M150 158q-14 -15 -31.5 -34t-33.5 -35h424l-16 -89h-547l15 80l461 512l65 69h-398l17 89h521l-15 -80z" />
    <glyph glyph-name="bracketleft" unicode="[" horiz-adv-x="384" 
d="M175 831h278l-17 -88h-176l-160 -819h176l-17 -88h-278z" />
    <glyph glyph-name="backslash" unicode="\" horiz-adv-x="463" 
d="M259 -164l-168 995h94l169 -995h-95z" />
    <glyph glyph-name="bracketright" unicode="]" horiz-adv-x="384" 
d="M191 -164h-277l16 88h176l160 819h-176l17 88h278z" />
    <glyph glyph-name="asciicircum" unicode="^" horiz-adv-x="536" 
d="M310 747h60l131 -302h-98l-76 182h-7l-149 -182h-110z" />
    <glyph glyph-name="underscore" unicode="_" horiz-adv-x="422" 
d="M-79 -30h421l-16 -85h-421z" />
    <glyph glyph-name="grave" unicode="`" 
d="M354 606h-102l-80 134h124z" />
    <glyph glyph-name="a" unicode="a" horiz-adv-x="532" 
d="M396 0h-87l-1 45q-33 -22 -77.5 -38.5t-104.5 -16.5q-77 0 -109.5 45.5t-15.5 129.5l3 15q10 49 31 79.5t53.5 47t77 22t100.5 5.5h94l6 29q6 31 6 53t-9 36t-29.5 20.5t-55.5 6.5q-32 0 -75.5 -8t-84.5 -22l16 85q45 17 87 23.5t81 6.5q62 0 98 -17t53 -45.5t18 -65.5
t-6 -77zM318 120l27 135h-83q-44 0 -72.5 -3t-46 -12t-26.5 -25.5t-15 -44.5l-3 -14q-17 -80 53 -80q18 0 39.5 3t43.5 9t43.5 14t39.5 18z" />
    <glyph glyph-name="b" unicode="b" horiz-adv-x="597" 
d="M384 564q49 0 82.5 -17t52 -46t23.5 -66.5t-3 -79.5l-27 -142q-10 -54 -27.5 -96t-46.5 -70.5t-71 -43t-102 -14.5q-17 0 -38.5 3t-44 9t-44 15.5t-37.5 23.5l-13 -40h-85l145 744l105 30l-51 -263q35 20 80 36.5t102 16.5zM185 426l-60 -306q26 -22 63 -32.5t70 -10.5
q71 0 106 39.5t51 120.5l19 97q14 71 -1.5 105.5t-78.5 34.5q-45 0 -90 -15t-79 -33z" />
    <glyph glyph-name="c" unicode="c" horiz-adv-x="497" 
d="M474 541l-15 -84q-23 8 -58 13.5t-73 5.5q-49 0 -82 -12.5t-54 -34.5t-33 -51.5t-19 -63.5l-15 -76q-7 -36 -7 -65.5t13 -50t41 -32t77 -11.5q32 0 70 5t80 19l-17 -86q-16 -8 -36 -13.5t-40 -8.5t-38.5 -4.5t-31.5 -1.5q-131 0 -183 63t-26 196l12 62q13 69 37.5 117.5
t60.5 79t83 44t107 13.5q41 0 81 -5.5t66 -17.5z" />
    <glyph glyph-name="d" unicode="d" horiz-adv-x="605" 
d="M177 -10q-52 0 -86.5 16.5t-53 45t-22.5 66t4 79.5l30 151q12 60 34.5 101t55 66.5t74.5 37t93 11.5q18 0 39.5 -2.5t42 -7t38.5 -11t28 -13.5l43 214l105 30l-150 -774h-90l-2 43q-47 -26 -89.5 -39.5t-93.5 -13.5zM376 130l62 315q-12 8 -27 14t-31.5 9.5t-32 5.5
t-28.5 2q-33 0 -60.5 -6t-49 -21.5t-37 -42t-23.5 -68.5l-26 -133q-13 -63 4.5 -94.5t71.5 -31.5q40 0 88 13.5t89 37.5z" />
    <glyph glyph-name="e" unicode="e" horiz-adv-x="556" 
d="M486 246h-360l-4 -22q-7 -33 -6 -60.5t14.5 -46.5t42 -29.5t77.5 -10.5q32 0 74 5t84 19l-17 -83q-37 -15 -76.5 -21.5t-74.5 -6.5q-134 0 -186.5 63t-26.5 195l12 62q13 69 38 117.5t59.5 78.5t77.5 44t93 14q54 0 95.5 -15t67 -47.5t32.5 -84.5t-7 -125zM404 325l1 7
q6 31 4 57.5t-13.5 46.5t-34.5 31.5t-60 11.5q-35 0 -62 -11.5t-46.5 -31.5t-31.5 -46.5t-18 -57.5l-1 -7h262z" />
    <glyph glyph-name="f" unicode="f" horiz-adv-x="370" 
d="M244 552h134l-18 -87h-134l-89 -465h-100l89 465h-88l18 87h88l17 90q14 69 55 100.5t111 31.5q32 0 57.5 -4.5t42.5 -9.5l-15 -78q-16 3 -33.5 5t-36.5 2q-23 0 -38 -4t-24 -12t-14 -22t-9 -33z" />
    <glyph glyph-name="g" unicode="g" horiz-adv-x="594" 
d="M178 -6q-53 0 -87 17t-53 46t-23 67.5t5 82.5l27 139q23 118 87.5 168t163.5 50q19 0 41 -3t43 -9t39.5 -15.5t32.5 -21.5l15 37h89l-113 -580q-10 -51 -28 -88t-49 -60.5t-77.5 -35t-112.5 -11.5q-17 0 -36 1t-38 3.5t-36 5t-30 5.5l17 85q27 -7 61 -10.5t60 -3.5
q42 0 71.5 5.5t49.5 19t32 36.5t18 58l10 54q-39 -20 -85 -31t-94 -11zM374 124l61 311q-17 19 -54.5 30t-82.5 11q-25 0 -48.5 -6.5t-43.5 -22t-35 -42.5t-23 -69l-24 -122q-14 -67 3 -99t77 -32q43 0 85.5 11t84.5 30z" />
    <glyph glyph-name="h" unicode="h" horiz-adv-x="585" 
d="M444 0h-100l72 373q10 49 0.5 75t-58.5 26q-35 0 -80 -11.5t-93 -36.5l-82 -426h-100l145 744l105 30l-51 -263q45 26 92 39.5t85 13.5q90 0 123 -46.5t18 -123.5z" />
    <glyph glyph-name="i" unicode="i" horiz-adv-x="254" 
d="M103 0h-100l107 552h100zM230 655h-100l21 111h100z" />
    <glyph glyph-name="j" unicode="j" horiz-adv-x="264" 
d="M220 552l-121 -620q-8 -43 -19.5 -72.5t-30 -48t-45 -26.5t-64.5 -8q-20 0 -47 2t-51 8l17 85q34 -6 75 -6q34 0 46.5 16t20.5 58l119 612h100zM240 655h-100l21 111h100z" />
    <glyph glyph-name="k" unicode="k" horiz-adv-x="527" 
d="M252 774l-84 -427h58l206 205h123l-258 -251l155 -301h-109l-127 257h-65l-49 -257h-99l145 744z" />
    <glyph glyph-name="l" unicode="l" horiz-adv-x="256" 
d="M103 0h-100l145 744l105 30z" />
    <glyph glyph-name="m" unicode="m" horiz-adv-x="875" 
d="M731 0h-100l73 378q10 49 -1.5 72.5t-54.5 23.5q-62 0 -150 -51l-3 -18l-78 -405h-100l73 378q10 49 -1.5 72.5t-55.5 23.5q-30 0 -66.5 -12.5t-82.5 -38.5l-81 -423h-100l107 552h89l2 -43q39 24 82.5 39.5t81.5 15.5q103 0 127 -64q51 30 101.5 47t85.5 17
q86 0 115.5 -40.5t14.5 -118.5z" />
    <glyph glyph-name="n" unicode="n" horiz-adv-x="585" 
d="M444 0h-100l72 373q10 49 0.5 75t-58.5 26q-36 0 -82 -12.5t-92 -38.5l-81 -423h-100l107 552h89l2 -43q43 25 88.5 40t89.5 15q45 0 75.5 -12t47.5 -34.5t21 -54t-3 -69.5z" />
    <glyph glyph-name="o" unicode="o" horiz-adv-x="575" 
d="M498 238q-23 -121 -92.5 -184.5t-183.5 -63.5q-113 0 -166.5 67.5t-30.5 188.5l14 70q23 121 92.5 184.5t182.5 63.5q114 0 167.5 -67.5t30.5 -188.5zM412 312q17 89 -12.5 127t-92.5 38t-107 -38t-61 -127l-14 -70q-17 -89 12.5 -127t91.5 -38q64 0 108 38t61 127z" />
    <glyph glyph-name="p" unicode="p" horiz-adv-x="597" 
d="M-40 -216l150 768h89l1 -44q42 23 86.5 39.5t97.5 16.5q48 0 81.5 -17t52.5 -45.5t24.5 -66t-2.5 -77.5l-28 -146q-12 -59 -31.5 -101.5t-50.5 -69.5t-75.5 -39.5t-105.5 -12.5q-13 0 -32 1.5t-40 5t-40.5 8t-32.5 10.5l-44 -230h-100zM184 422l-62 -322q26 -11 60.5 -17
t64.5 -6q46 0 76 13t48.5 35t27.5 49.5t15 56.5l21 107q6 33 6.5 58.5t-8 42.5t-27.5 26t-52 9q-38 0 -84.5 -15t-85.5 -37z" />
    <glyph glyph-name="q" unicode="q" horiz-adv-x="595" 
d="M178 -10q-53 0 -87 17t-53 46t-23 67.5t5 82.5l28 143q23 118 87.5 168t163.5 50q19 0 41 -3t43 -9t39.5 -15.5t32.5 -21.5l15 37h89l-150 -768h-100l48 248q-39 -20 -85 -31t-94 -11zM374 120l62 315q-17 19 -54.5 30t-82.5 11q-25 0 -48.5 -6.5t-43.5 -22t-35 -42.5
t-23 -69l-25 -126q-14 -67 3 -99t77 -32q43 0 85.5 11t84.5 30z" />
    <glyph glyph-name="r" unicode="r" horiz-adv-x="385" 
d="M389 564l-20 -101q-46 -3 -95.5 -17t-93.5 -44l-77 -402h-100l107 552h89l-1 -56q13 10 33 22t44.5 22.5t53 17t60.5 6.5z" />
    <glyph glyph-name="s" unicode="s" horiz-adv-x="450" 
d="M378 145q-7 -35 -19.5 -63.5t-37 -48.5t-63.5 -31.5t-97 -11.5q-20 0 -44 2t-49.5 5.5t-50.5 10t-45 15.5l18 87q49 -21 95 -27.5t77 -6.5q61 0 86.5 18t32.5 54q3 18 4 31t-5.5 23t-22.5 18t-47 16l-38 10q-80 21 -106.5 60.5t-13.5 106.5q7 38 22 66.5t40 47t62 28
t90 9.5q43 0 84.5 -5t66.5 -15l-17 -83q-27 9 -62.5 14t-64.5 5q-65 0 -92 -16t-34 -56q-4 -19 -3 -32t8.5 -22t23 -15.5t40.5 -13.5l38 -10q44 -12 71.5 -26.5t41.5 -35t16 -47t-5 -61.5z" />
    <glyph glyph-name="t" unicode="t" horiz-adv-x="399" 
d="M377 465h-143l-60 -311q-8 -39 -0.5 -56.5t39.5 -17.5q23 0 48 4t45 12l-17 -83q-21 -13 -51.5 -18t-54.5 -5q-66 0 -96.5 36.5t-17.5 102.5l65 336h-88l18 87h88l22 114l105 30l-27 -144h143z" />
    <glyph glyph-name="u" unicode="u" horiz-adv-x="577" 
d="M105 552h100l-73 -372q-5 -24 -6 -43t4.5 -32t19 -19.5t38.5 -6.5q35 0 79.5 13.5t91.5 40.5l82 419h100l-107 -552h-89l-2 45q-42 -24 -83.5 -39.5t-91.5 -15.5q-45 0 -75.5 12.5t-47 35.5t-20.5 55t4 71z" />
    <glyph glyph-name="v" unicode="v" horiz-adv-x="508" 
d="M242 0h-116l-79 552h103l38 -340q2 -26 4.5 -54.5t6.5 -63.5h1q18 35 31.5 63.5t27.5 54.5l170 340h107z" />
    <glyph glyph-name="w" unicode="w" horiz-adv-x="765" 
d="M145 552l33 -339q2 -17 3.5 -43t-0.5 -49h1q9 24 19.5 49.5t18.5 42.5l159 339h86l27 -339q2 -15 3 -41t-1 -51h1q9 23 20 50t19 42l166 339h95l-277 -552h-93l-26 325q-1 10 -1 25v31t1 30.5t2 24.5h-1q-8 -33 -19.5 -61.5t-21.5 -49.5l-155 -325h-89l-65 552h95z" />
    <glyph glyph-name="x" unicode="x" horiz-adv-x="537" 
d="M180 552l40 -98q11 -26 22 -55.5t21 -55.5h1q23 32 43.5 57.5t40.5 53.5l71 98h122l-226 -272l129 -280h-111l-44 100q-9 20 -22 49.5t-24 61.5h-1q-21 -30 -43.5 -57.5t-43.5 -53.5l-81 -100h-121l240 282l-124 270h111z" />
    <glyph glyph-name="y" unicode="y" horiz-adv-x="523" 
d="M551 552l-427 -768h-102l118 217l-93 551h104l49 -346q2 -19 4.5 -45.5t3.5 -68.5h1q14 37 27.5 66.5t23.5 47.5l186 346h105z" />
    <glyph glyph-name="z" unicode="z" horiz-adv-x="477" 
d="M460 473l-290 -317q-28 -31 -70 -70h299l-16 -86h-419l14 79l293 318l65 69h-271l17 86h394z" />
    <glyph glyph-name="braceleft" unicode="{" horiz-adv-x="420" 
d="M41 399q100 0 115 77l39 201q16 78 59 116t132 38h108l-17 -88h-91q-37 0 -59.5 -15t-30.5 -53l-38 -193q-3 -18 -10 -39t-20 -40.5t-32 -34.5t-47 -21q25 -6 38.5 -21t19 -34.5t4 -40.5t-4.5 -39l-43 -220q-8 -38 9 -53t54 -15h91l-17 -88h-88q-89 0 -128 38t-23 116
l47 238q15 77 -86 77z" />
    <glyph glyph-name="bar" unicode="|" horiz-adv-x="295" 
d="M93 -164h-97l194 995h97z" />
    <glyph glyph-name="braceright" unicode="}" horiz-adv-x="420" 
d="M373 300q-99 0 -114 -77l-46 -233q-16 -78 -59 -116t-132 -38h-107l16 88h91q37 0 60 15t31 53l44 225q3 18 10 39t19.5 40.5t31.5 34.5t46 21q-25 6 -38 21t-18 34.5t-3.5 40.5t4.5 39l37 188q8 38 -9.5 53t-54.5 15h-91l17 88h88q89 0 128 -38t23 -116l-40 -206
q-15 -77 85 -77z" />
    <glyph glyph-name="asciitilde" unicode="~" horiz-adv-x="564" 
d="M359 258q-34 0 -56 11.5t-39.5 25.5t-33 25.5t-37.5 11.5q-15 0 -27 -7t-20.5 -18t-14.5 -25t-10 -27h-98q10 33 24 64t34 54t48 37t67 14q34 0 56.5 -11.5t40.5 -25.5t34 -25.5t37 -11.5q16 0 28 7t20 18t14 24.5t10 27.5h96q-10 -32 -22.5 -62.5t-32.5 -54t-48.5 -38
t-69.5 -14.5z" />
    <glyph glyph-name="uni00A0" unicode="&#xa0;" horiz-adv-x="0" 
 />
    <glyph glyph-name="exclamdown" unicode="&#xa1;" horiz-adv-x="279" 
d="M-22 -165l119 533h77l-87 -533h-109zM213 460h-117l23 125h117z" />
    <glyph glyph-name="cent" unicode="&#xa2;" horiz-adv-x="516" 
d="M272 0h-68l18 95q-221 19 -174 264l12 62q13 66 37 111.5t58.5 75t79 43.5t98.5 16l16 83h68l-16 -84q32 -2 61.5 -7t49.5 -14l-16 -82q-18 7 -48.5 11.5t-63.5 6.5l-77 -400q29 2 62 7.5t66 16.5l-17 -84q-29 -14 -63 -20t-65 -8zM159 418l-14 -76q-7 -33 -7 -60.5
t10 -48t31.5 -33.5t59.5 -17l77 396q-38 -5 -65 -19t-45 -35t-29.5 -48.5t-17.5 -58.5z" />
    <glyph glyph-name="sterling" unicode="&#xa3;" horiz-adv-x="565" 
d="M47 413h78l15 74q14 71 37 123t57.5 86t81.5 50.5t110 16.5q24 0 55.5 -4t57.5 -13l-19 -97q-17 9 -44.5 13.5t-59.5 4.5q-27 0 -53.5 -8t-49 -27.5t-40 -53t-28.5 -84.5l-17 -81h212l-15 -80h-212l-8 -37q-8 -39 -15 -68t-16.5 -51.5t-23.5 -41t-36 -35.5l-1 -2h355
l-18 -98h-487l15 80q28 15 47.5 36t33.5 47t24 58t18 70l9 42h-78z" />
    <glyph glyph-name="currency" unicode="&#xa4;" horiz-adv-x="720" 
d="M481 167q-52 -32 -121 -32q-68 0 -121 33l-102 -102l-57 57l100 100q-21 29 -32.5 64.5t-11.5 77.5t11.5 77t31.5 64l-99 100l57 57l101 -102q26 16 56.5 24.5t65.5 8.5q68 0 121 -33l102 102l57 -57l-99 -99q21 -29 33 -64.5t12 -77.5t-12 -78t-33 -65l99 -99l-57 -57z
M360 211q33 0 59.5 11.5t44.5 32t28 49t10 61.5q0 68 -38 110.5t-104 42.5q-65 0 -103 -42.5t-38 -110.5q0 -67 38 -110.5t103 -43.5z" />
    <glyph glyph-name="yen" unicode="&#xa5;" horiz-adv-x="586" 
d="M318 181l-35 -181h-103l34 181h-193l16 82h193l14 70h-193l16 82h148l-121 335h108l67 -202q5 -15 10 -34t9.5 -38.5l9 -39t8.5 -35.5q8 16 19.5 36t24 40t24.5 38.5t22 32.5l144 202h113l-247 -335h142l-16 -82h-185l-13 -70h184l-16 -82h-184z" />
    <glyph glyph-name="brokenbar" unicode="&#xa6;" horiz-adv-x="295" 
d="M165 216l-74 -380h-97l74 380h97zM114 451l74 380h97l-74 -380h-97z" />
    <glyph glyph-name="section" unicode="&#xa7;" horiz-adv-x="559" 
d="M61 323q9 47 40 83.5t86 56.5q-20 24 -24 55.5t4 69.5t23 66.5t40 47t62 28t90 9.5q43 0 84 -5t66 -15l-17 -84q-27 9 -62 14t-64 5q-65 0 -92 -15.5t-35 -55.5q-3 -19 -2.5 -33t8 -25t22 -19t39.5 -15l38 -10q47 -12 76.5 -29.5t44 -40.5t16.5 -52t-5 -64
q-10 -48 -41 -86t-87 -58q20 -23 24.5 -54t-3.5 -69q-7 -38 -21.5 -66.5t-40 -48t-63 -29t-89.5 -9.5q-43 0 -84.5 5t-67.5 15l17 84q26 -9 62 -14t65 -5q33 0 55 3.5t36.5 12t22.5 22t12 33.5q4 19 3.5 33t-8 25t-22.5 19t-40 15l-38 10q-47 12 -76 30t-43 42t-16 53.5
t5 64.5zM401 301q4 18 3.5 33t-8 27t-25 21.5t-47.5 17.5l-39 10l-16 4q-55 -12 -80.5 -41t-31.5 -60q-3 -18 -3 -33t8 -27t25.5 -21.5t47.5 -17.5l38 -10l16 -5q55 13 80.5 41.5t31.5 60.5z" />
    <glyph glyph-name="dieresis" unicode="&#xa8;" 
d="M209 718h93l-20 -106h-93zM387 718h93l-20 -106h-93z" />
    <glyph glyph-name="copyright" unicode="&#xa9;" horiz-adv-x="824" 
d="M411 19q68 0 124.5 23.5t97.5 65.5t64 100t23 127t-23 127t-64.5 100t-98 65t-123.5 23t-123 -23t-97 -65t-64 -100t-23 -127t23 -127t64 -100t97 -65.5t123 -23.5zM411 -33q-81 0 -148 29t-115 79t-75 117t-27 143t27 143t75 116.5t115 78.5t148 29q82 0 149.5 -29
t116 -78.5t75 -116.5t26.5 -143t-27 -143t-75.5 -117t-116 -79t-148.5 -29zM548 528v-73q-17 6 -45 10.5t-59 4.5q-33 0 -54 -7.5t-33 -22t-16.5 -34.5t-4.5 -45v-57q0 -26 4 -45.5t15.5 -33t32.5 -20.5t55 -7q27 0 55.5 4t57.5 15v-75q-26 -12 -58.5 -16t-58.5 -4
q-99 0 -144.5 43.5t-45.5 141.5v46q0 102 48.5 147t140.5 45q31 0 60 -4t50 -13z" />
    <glyph glyph-name="ordfeminine" unicode="&#xaa;" horiz-adv-x="452" 
d="M397 289h-84l-1 38q-21 -14 -59.5 -30.5t-87.5 -16.5q-67 0 -98.5 36t-17.5 108l3 16q8 42 25.5 69.5t45 43.5t66.5 22t90 6h79l4 20q6 27 4.5 44.5t-10.5 27.5t-25.5 13.5t-41.5 3.5q-27 0 -63.5 -5.5t-71.5 -17.5l15 84q41 14 76.5 18.5t67.5 4.5q54 0 85.5 -14t47 -38
t17.5 -55t-5 -65zM323 397l21 107h-66q-64 0 -94.5 -15.5t-37.5 -58.5l-2 -12q-6 -34 8 -44.5t43 -10.5q11 0 27.5 2.5t34.5 7t35.5 10.5t30.5 14z" />
    <glyph glyph-name="guillemotleft" unicode="&#xab;" horiz-adv-x="572" 
d="M45 255l11 60l199 184h107l-226 -224l-1 -5l137 -222h-96zM259 255l11 60l193 184h106l-219 -224l-1 -5l130 -222h-95z" />
    <glyph glyph-name="logicalnot" unicode="&#xac;" 
d="M52 388h457l-53 -270h-77l39 201h-380z" />
    <glyph glyph-name="uni00AD" unicode="&#xad;" horiz-adv-x="833" 
 />
    <glyph glyph-name="registered" unicode="&#xae;" horiz-adv-x="630" 
d="M314 226q45 0 83.5 16t66 44.5t43 68t15.5 85.5t-15.5 85.5t-43.5 67.5t-66 44t-83 16t-82.5 -16t-65 -44t-43 -67.5t-15.5 -85.5t15.5 -85.5t43 -68t65 -44.5t82.5 -16zM314 178q-57 0 -105 20.5t-82.5 56t-53.5 83.5t-19 102t19 102t53.5 83.5t82.5 56t105 20.5
q58 0 106.5 -20.5t83 -56t53.5 -83.5t19 -102t-19 -102t-53.5 -83.5t-83 -56t-106.5 -20.5zM216 584h109q44 0 72 -16t28 -60v-21q0 -32 -10.5 -48.5t-34.5 -25.5l60 -113h-70l-50 104h-43v-104h-61v284zM277 537v-85h33q32 0 42.5 7.5t10.5 29.5v14q0 19 -10.5 26.5
t-41.5 7.5h-34z" />
    <glyph glyph-name="macron" unicode="&#xaf;" 
d="M214 720h284l-16 -80h-284z" />
    <glyph glyph-name="degree" unicode="&#xb0;" horiz-adv-x="401" 
d="M235 497q37 0 65 27.5t28 70.5q0 28 -16.5 43.5t-45.5 15.5q-37 0 -65 -27.5t-28 -70.5q0 -28 16.5 -43.5t45.5 -15.5zM224 425q-30 0 -53.5 10.5t-40 27.5t-25 40t-8.5 49q0 36 14.5 67.5t39 55.5t57 37.5t69.5 13.5q30 0 53.5 -10.5t40 -27.5t25 -40.5t8.5 -48.5
q0 -36 -14.5 -67.5t-39 -55.5t-57 -37.5t-69.5 -13.5z" />
    <glyph glyph-name="plusminus" unicode="&#xb1;" horiz-adv-x="568" 
d="M389 600l-37 -189h191l-18 -94h-192l-35 -183h-99l35 183h-190l18 94h191l37 189h99zM3 106h481l-19 -94h-481z" />
    <glyph glyph-name="twosuperior" unicode="&#xb2;" horiz-adv-x="388" 
d="M19 289l14 73l202 167q22 18 35 30.5t20.5 24t11 23.5t7.5 30l2 10q5 28 -9 37.5t-63 9.5q-34 0 -68 -6t-63 -17l15 80q14 5 31 9t34.5 7t34 5t29.5 2q94 0 129 -33.5t22 -96.5l-2 -10q-5 -27 -11.5 -46t-17.5 -35.5t-28.5 -33.5t-45.5 -39l-145 -114h212l-15 -77h-331z
" />
    <glyph glyph-name="threesuperior" unicode="&#xb3;" horiz-adv-x="393" 
d="M146 495l15 75h69q43 0 58 15.5t22 51.5q8 35 -9 47.5t-57 12.5q-32 0 -67.5 -7t-64.5 -17l14 76q25 10 57 17.5t70 7.5q94 0 128 -37t21 -102q-3 -14 -8 -29.5t-15 -29t-26.5 -25t-40.5 -17.5q45 -12 57 -42.5t3 -78.5q-7 -36 -19 -61.5t-34.5 -41t-56.5 -23t-85 -7.5
q-20 0 -42 2t-42.5 5.5t-37.5 8t-28 9.5l16 78q24 -11 62 -18t73 -7q55 0 77 17.5t28 51.5q9 44 -8 56t-61 12h-68z" />
    <glyph glyph-name="acute" unicode="&#xb4;" 
d="M305 740h132l-136 -134h-108z" />
    <glyph glyph-name="mu" unicode="&#xb5;" horiz-adv-x="577" 
d="M53 -216h-100l150 768h100l-73 -372q-10 -53 12.5 -77t68.5 -24q34 0 71 14t74 37l83 422h100l-107 -552h-89l-2 45q-29 -20 -65 -37.5t-86 -17.5q-13 0 -27.5 3t-27 9.5t-21.5 16t-11 22.5z" />
    <glyph glyph-name="paragraph" unicode="&#xb6;" horiz-adv-x="558" 
d="M547 750l-169 -872h-87l154 793h-61l-154 -793h-88l89 459q-49 1 -83.5 17t-55 44t-26.5 65t3 80l8 41q17 87 83 126.5t167 39.5h220z" />
    <glyph glyph-name="periodcentered" unicode="&#xb7;" horiz-adv-x="278" 
d="M81 403h116l-23 -125h-116z" />
    <glyph glyph-name="cedilla" unicode="&#xb8;" 
d="M194 -263q-20 0 -43.5 1.5t-43.5 5.5l14 70q14 -2 28.5 -3t33.5 -1q43 0 58.5 12t18.5 26l2 10q4 20 -10.5 29t-53.5 9h-29l25 125h87l-15 -75q52 -4 75 -28.5t15 -65.5l-2 -10q-6 -31 -20 -51t-34.5 -32t-47.5 -17t-58 -5z" />
    <glyph glyph-name="onesuperior" unicode="&#xb9;" horiz-adv-x="339" 
d="M15 289l15 74h106l59 301l-119 -49l16 83l138 67h79l-78 -402h90l-15 -74h-291z" />
    <glyph glyph-name="ordmasculine" unicode="&#xba;" horiz-adv-x="474" 
d="M463 491q-20 -105 -79 -158t-160 -53q-104 0 -149 60.5t-25 165.5l12 60q20 105 80.5 156.5t157.5 51.5q105 0 150 -59t25 -164zM379 557q7 38 4 64t-15 41.5t-31.5 22.5t-43.5 7q-48 0 -84.5 -29.5t-51.5 -105.5l-12 -60q-8 -38 -4.5 -64t15.5 -42t31 -22.5t43 -6.5
t46 6.5t39.5 22.5t30.5 42t21 64z" />
    <glyph glyph-name="guillemotright" unicode="&#xbb;" horiz-adv-x="590" 
d="M522 292l-11 -60l-199 -184h-107l226 224l1 5l-137 222h96zM308 292l-11 -60l-193 -184h-106l219 224l1 5l-130 222h95z" />
    <glyph glyph-name="onequarter" unicode="&#xbc;" horiz-adv-x="888" 
d="M397 13l16 77l281 309h106l-60 -308h59l-16 -78h-59l-17 -90h-88l17 90h-239zM652 91l40 207l-192 -207h152zM68 -80l706 853h102l-707 -853h-101zM15 289l15 74h106l59 301l-119 -49l16 83l138 67h79l-78 -402h90l-15 -74h-291z" />
    <glyph glyph-name="onehalf" unicode="&#xbd;" horiz-adv-x="930" 
d="M15 289l15 74h106l59 301l-119 -49l16 83l138 67h79l-78 -402h90l-15 -74h-291zM68 -80l706 853h102l-707 -853h-101zM509 -77l14 73l202 167q22 18 35 30.5t20.5 24t11 23.5t7.5 30l2 10q5 28 -9 37.5t-63 9.5q-34 0 -68 -6t-63 -17l15 80q14 5 31 9t34.5 7t34 5t29.5 2
q94 0 129 -33.5t22 -96.5l-2 -10q-5 -27 -11.5 -46t-17.5 -35.5t-28.5 -33.5t-45.5 -39l-145 -114h212l-15 -77h-331z" />
    <glyph glyph-name="threequarters" unicode="&#xbe;" horiz-adv-x="888" 
d="M397 13l16 77l281 309h106l-60 -308h59l-16 -78h-59l-17 -90h-88l17 90h-239zM68 -80l706 853h102l-707 -853h-101zM146 495l15 75h69q21 0 35 3.5t22.5 12t13.5 21t9 30.5q7 35 -9.5 47.5t-56.5 12.5q-32 0 -67.5 -7t-64.5 -17l14 76q25 10 57 17.5t70 7.5q94 0 128 -37
t21 -102q-3 -14 -8 -29.5t-15 -29t-26.5 -25t-40.5 -17.5q45 -12 57 -42.5t3 -78.5q-7 -36 -19 -61.5t-34.5 -41t-56.5 -23t-85 -7.5q-20 0 -42 2t-42.5 5.5t-37.5 8t-28 9.5l16 78q24 -11 62 -18t73 -7q28 0 46.5 4.5t30.5 13t18.5 21.5t9.5 30q8 44 -8.5 56t-60.5 12h-68z
M652 91l40 207l-192 -207h152z" />
    <glyph glyph-name="questiondown" unicode="&#xbf;" horiz-adv-x="463" 
d="M340 376l-9 -48q-7 -35 -17.5 -58.5t-27.5 -42.5t-43.5 -36.5t-64.5 -40.5q-23 -14 -39 -25.5t-26.5 -25t-17.5 -30t-12 -40.5q-5 -30 -3 -50.5t15 -33t38 -18.5t66 -6q50 0 99 12t93 29l-17 -92q-38 -17 -85 -29.5t-101 -12.5q-65 0 -108.5 14.5t-68 41t-30.5 64.5t3 86
q9 45 25 74.5t35 50t39.5 33.5t39.5 25q31 20 50.5 32.5t31 23.5t17 24t9.5 33l9 46h100zM365 460h-116l23 125h116z" />
    <glyph glyph-name="Agrave" unicode="&#xc0;" horiz-adv-x="667" 
d="M585 0h-108l-33 211h-287l-112 -211h-108l411 750h100zM207 305h221l-27 195q-5 35 -10 67.5t-8 71.5q-17 -39 -34.5 -72t-35.5 -67zM452 806h-102l-80 134h124z" />
    <glyph glyph-name="Aacute" unicode="&#xc1;" horiz-adv-x="667" 
d="M585 0h-108l-33 211h-287l-112 -211h-108l411 750h100zM207 305h221l-27 195q-5 35 -10 67.5t-8 71.5q-17 -39 -34.5 -72t-35.5 -67zM460 940h132l-136 -134h-108z" />
    <glyph glyph-name="Acircumflex" unicode="&#xc2;" horiz-adv-x="667" 
d="M585 0h-108l-33 211h-287l-112 -211h-108l411 750h100zM207 305h221l-27 195q-5 35 -10 67.5t-8 71.5q-17 -39 -34.5 -72t-35.5 -67zM398 960h87l68 -148h-75l-45 80l-78 -80h-83z" />
    <glyph glyph-name="Atilde" unicode="&#xc3;" horiz-adv-x="667" 
d="M585 0h-108l-33 211h-287l-112 -211h-108l411 750h100zM207 305h221l-27 195q-5 35 -10 67.5t-8 71.5q-17 -39 -34.5 -72t-35.5 -67zM460 808q-21 0 -34.5 9t-24 19.5l-19.5 19.5t-21 9q-17 0 -29 -18.5t-18 -36.5h-76q8 22 18.5 45.5t25 42t34.5 30.5t46 12q21 0 35 -9
t25 -19.5t20.5 -19.5t21.5 -9q20 0 30 17.5t15 39.5h76q-6 -21 -16 -44.5t-25 -43t-35.5 -32t-48.5 -12.5z" />
    <glyph glyph-name="Adieresis" unicode="&#xc4;" horiz-adv-x="667" 
d="M585 0h-108l-33 211h-287l-112 -211h-108l411 750h100zM207 305h221l-27 195q-5 35 -10 67.5t-8 71.5q-17 -39 -34.5 -72t-35.5 -67zM290 918h93l-20 -106h-93zM468 918h93l-20 -106h-93z" />
    <glyph glyph-name="Aring" unicode="&#xc5;" horiz-adv-x="667" 
d="M585 0h-108l-33 211h-287l-112 -211h-108l411 750h100zM207 305h221l-27 195q-5 35 -10 67.5t-8 71.5q-17 -39 -34.5 -72t-35.5 -67zM416 843q23 0 41 16.5t18 45.5q0 17 -11 28t-30 11q-23 0 -40.5 -18t-17.5 -45q0 -18 11 -28t29 -10zM409 789q-40 0 -65.5 26t-25.5 62
q0 25 10 47.5t27 38.5t39.5 25.5t47.5 9.5q41 0 66 -25.5t25 -61.5q0 -25 -9.5 -47t-26.5 -38.5t-39.5 -26.5t-48.5 -10z" />
    <glyph glyph-name="AE" unicode="&#xc6;" horiz-adv-x="1021" 
d="M1040 750l-18 -95h-360l-43 -221h328l-18 -93h-328l-48 -246h374l-18 -95h-477l41 211h-242l-171 -211h-123l611 750h492zM484 535l-184 -230h191l64 332q-22 -36 -39.5 -60t-31.5 -42z" />
    <glyph glyph-name="Ccedilla" unicode="&#xc7;" horiz-adv-x="602" 
d="M224 -263q-20 0 -43.5 1.5t-43.5 5.5l14 70q14 -2 28.5 -3t33.5 -1q43 0 58.5 12t18.5 26l2 10q4 20 -10.5 29t-53.5 9h-29l19 98q-64 9 -106 32.5t-63.5 64t-23.5 98t13 134.5l24 122q18 94 50.5 155.5t79 97.5t108 50t139.5 14q48 0 99 -5.5t85 -19.5l-18 -90
q-14 5 -33 9t-41.5 6.5t-47 4t-47.5 1.5q-76 0 -124 -18t-77.5 -48.5t-44 -71.5t-23.5 -86l-26 -131q-9 -47 -11.5 -89t14 -73.5t58 -49.5t119.5 -18q39 0 88 4.5t102 20.5l-17 -89q-48 -18 -97.5 -24.5t-89.5 -6.5h-3l-8 -42q52 -4 75 -28.5t15 -65.5l-2 -10
q-6 -31 -20 -51t-34.5 -32t-47.5 -17t-58 -5z" />
    <glyph glyph-name="Egrave" unicode="&#xc8;" horiz-adv-x="593" 
d="M612 750l-18 -95h-360l-43 -221h328l-18 -93h-328l-48 -246h374l-18 -95h-476l145 750h462zM452 806h-102l-80 134h124z" />
    <glyph glyph-name="Eacute" unicode="&#xc9;" horiz-adv-x="593" 
d="M612 750l-18 -95h-360l-43 -221h328l-18 -93h-328l-48 -246h374l-18 -95h-476l145 750h462zM428 940h132l-136 -134h-108z" />
    <glyph glyph-name="Ecircumflex" unicode="&#xca;" horiz-adv-x="593" 
d="M612 750l-18 -95h-360l-43 -221h328l-18 -93h-328l-48 -246h374l-18 -95h-476l145 750h462zM376 954h87l68 -148h-75l-45 80l-78 -80h-83z" />
    <glyph glyph-name="Edieresis" unicode="&#xcb;" horiz-adv-x="593" 
d="M612 750l-18 -95h-360l-43 -221h328l-18 -93h-328l-48 -246h374l-18 -95h-476l145 750h462zM284 918h93l-20 -106h-93zM462 918h93l-20 -106h-93z" />
    <glyph glyph-name="Igrave" unicode="&#xcc;" horiz-adv-x="266" 
d="M110 0h-102l145 750h102zM258 806h-102l-80 134h124z" />
    <glyph glyph-name="Iacute" unicode="&#xcd;" horiz-adv-x="266" 
d="M110 0h-102l145 750h102zM269 940h132l-136 -134h-108z" />
    <glyph glyph-name="Icircumflex" unicode="&#xce;" horiz-adv-x="266" 
d="M110 0h-102l145 750h102zM203 954h87l68 -148h-75l-45 80l-78 -80h-83z" />
    <glyph glyph-name="Idieresis" unicode="&#xcf;" horiz-adv-x="266" 
d="M110 0h-102l145 750h102zM103 918h93l-20 -106h-93zM281 918h93l-20 -106h-93z" />
    <glyph glyph-name="Eth" unicode="&#xd0;" horiz-adv-x="745" 
d="M55 0l65 339h-79l17 93h80l62 318h240q91 0 149.5 -19t89 -60.5t35 -106.5t-13.5 -156l-19 -98q-18 -90 -42.5 -150t-65 -95.5t-101.5 -50t-152 -14.5h-265zM284 655l-44 -223h204l-17 -93h-205l-47 -244h148q70 0 115 14t72.5 41t42 67t24.5 93l24 122q10 52 11.5 93
t-14.5 70t-54 44.5t-107 15.5h-153z" />
    <glyph glyph-name="Ntilde" unicode="&#xd1;" horiz-adv-x="700" 
d="M550 0h-110l-186 498q-8 23 -16.5 50t-16.5 61l-117 -609h-99l145 750h110l185 -497q5 -13 9 -24.5t8 -24t8 -28t8 -36.5l118 610h99zM509 808q-21 0 -34.5 9t-24 19.5l-19.5 19.5t-21 9q-17 0 -29 -18.5t-18 -36.5h-76q8 22 18.5 45.5t25 42t34.5 30.5t46 12q21 0 35 -9
t25 -19.5t20.5 -19.5t21.5 -9q20 0 30 17.5t15 39.5h76q-6 -21 -16 -44.5t-25 -43t-35.5 -32t-48.5 -12.5z" />
    <glyph glyph-name="Ograve" unicode="&#xd2;" horiz-adv-x="729" 
d="M670 319q-32 -163 -125 -247t-245 -84q-76 0 -132.5 22.5t-90 66t-44 107t5.5 144.5l20 104q32 162 125 246t246 84q76 0 132 -22.5t89.5 -66t44 -106.5t-5.5 -144zM586 421q13 67 7.5 113.5t-27.5 75.5t-58.5 42.5t-85.5 13.5t-91 -13.5t-75.5 -42.5t-57.5 -75.5
t-37 -113.5l-18 -92q-13 -67 -7 -113.5t28 -76t59 -42.5t85 -13q49 0 90.5 13t75 42.5t57.5 76t37 113.5zM503 806h-102l-80 134h124z" />
    <glyph glyph-name="Oacute" unicode="&#xd3;" horiz-adv-x="729" 
d="M670 319q-32 -163 -125 -247t-245 -84q-76 0 -132.5 22.5t-90 66t-44 107t5.5 144.5l20 104q32 162 125 246t246 84q76 0 132 -22.5t89.5 -66t44 -106.5t-5.5 -144zM586 421q13 67 7.5 113.5t-27.5 75.5t-58.5 42.5t-85.5 13.5t-91 -13.5t-75.5 -42.5t-57.5 -75.5
t-37 -113.5l-18 -92q-13 -67 -7 -113.5t28 -76t59 -42.5t85 -13q49 0 90.5 13t75 42.5t57.5 76t37 113.5zM498 940h132l-136 -134h-108z" />
    <glyph glyph-name="Ocircumflex" unicode="&#xd4;" horiz-adv-x="729" 
d="M670 319q-32 -163 -125 -247t-245 -84q-76 0 -132.5 22.5t-90 66t-44 107t5.5 144.5l20 104q32 162 125 246t246 84q76 0 132 -22.5t89.5 -66t44 -106.5t-5.5 -144zM586 421q13 67 7.5 113.5t-27.5 75.5t-58.5 42.5t-85.5 13.5t-91 -13.5t-75.5 -42.5t-57.5 -75.5
t-37 -113.5l-18 -92q-13 -67 -7 -113.5t28 -76t59 -42.5t85 -13q49 0 90.5 13t75 42.5t57.5 76t37 113.5zM439 954h87l68 -148h-75l-45 80l-78 -80h-83z" />
    <glyph glyph-name="Otilde" unicode="&#xd5;" horiz-adv-x="729" 
d="M670 319q-32 -163 -125 -247t-245 -84q-76 0 -132.5 22.5t-90 66t-44 107t5.5 144.5l20 104q32 162 125 246t246 84q76 0 132 -22.5t89.5 -66t44 -106.5t-5.5 -144zM586 421q13 67 7.5 113.5t-27.5 75.5t-58.5 42.5t-85.5 13.5t-91 -13.5t-75.5 -42.5t-57.5 -75.5
t-37 -113.5l-18 -92q-13 -67 -7 -113.5t28 -76t59 -42.5t85 -13q49 0 90.5 13t75 42.5t57.5 76t37 113.5zM516 808q-21 0 -34.5 9t-24 19.5l-19.5 19.5t-21 9q-17 0 -29 -18.5t-18 -36.5h-76q8 22 18.5 45.5t25 42t34.5 30.5t46 12q21 0 35 -9t25 -19.5t20.5 -19.5t21.5 -9
q20 0 30 17.5t15 39.5h76q-6 -21 -16 -44.5t-25 -43t-35.5 -32t-48.5 -12.5z" />
    <glyph glyph-name="Odieresis" unicode="&#xd6;" horiz-adv-x="729" 
d="M670 319q-32 -163 -125 -247t-245 -84q-76 0 -132.5 22.5t-90 66t-44 107t5.5 144.5l20 104q32 162 125 246t246 84q76 0 132 -22.5t89.5 -66t44 -106.5t-5.5 -144zM586 421q13 67 7.5 113.5t-27.5 75.5t-58.5 42.5t-85.5 13.5t-91 -13.5t-75.5 -42.5t-57.5 -75.5
t-37 -113.5l-18 -92q-13 -67 -7 -113.5t28 -76t59 -42.5t85 -13q49 0 90.5 13t75 42.5t57.5 76t37 113.5zM339 918h93l-20 -106h-93zM517 918h93l-20 -106h-93z" />
    <glyph glyph-name="multiply" unicode="&#xd7;" horiz-adv-x="568" 
d="M530 507l-188 -161l125 -160l-77 -66l-122 162l-189 -162l-51 66l190 163l-124 166l73 58l124 -161l187 161z" />
    <glyph glyph-name="Oslash" unicode="&#xd8;" horiz-adv-x="749" 
d="M680 319q-32 -163 -125 -247t-245 -84q-110 0 -177 46l-65 -77h-96l109 128q-30 43 -38.5 104t6.5 139l20 104q32 162 125 246t246 84q110 0 179 -49l67 79h96l-112 -131q58 -89 30 -238zM432 666q-49 0 -91 -13.5t-75.5 -42.5t-57.5 -75.5t-37 -113.5l-18 -92
q-19 -101 3 -157l395 462q-22 17 -52 24.5t-67 7.5zM596 421q19 95 -1 152l-394 -460q43 -29 117 -29q49 0 90.5 13t75 42.5t57.5 76t37 113.5z" />
    <glyph glyph-name="Ugrave" unicode="&#xd9;" horiz-adv-x="716" 
d="M244 750l-90 -466q-11 -56 -7.5 -94t21.5 -61t51 -32.5t81 -9.5q50 0 87.5 9.5t64.5 32.5t45.5 61t29.5 94l90 466h104l-92 -477q-14 -75 -39 -128.5t-65.5 -88.5t-97.5 -51.5t-136 -16.5q-299 0 -240 302l89 460h104zM501 806h-102l-80 134h124z" />
    <glyph glyph-name="Uacute" unicode="&#xda;" horiz-adv-x="716" 
d="M244 750l-90 -466q-11 -56 -7.5 -94t21.5 -61t51 -32.5t81 -9.5q50 0 87.5 9.5t64.5 32.5t45.5 61t29.5 94l90 466h104l-92 -477q-14 -75 -39 -128.5t-65.5 -88.5t-97.5 -51.5t-136 -16.5q-299 0 -240 302l89 460h104zM487 940h132l-136 -134h-108z" />
    <glyph glyph-name="Ucircumflex" unicode="&#xdb;" horiz-adv-x="716" 
d="M244 750l-90 -466q-11 -56 -7.5 -94t21.5 -61t51 -32.5t81 -9.5q50 0 87.5 9.5t64.5 32.5t45.5 61t29.5 94l90 466h104l-92 -477q-14 -75 -39 -128.5t-65.5 -88.5t-97.5 -51.5t-136 -16.5q-299 0 -240 302l89 460h104zM427 954h87l68 -148h-75l-45 80l-78 -80h-83z" />
    <glyph glyph-name="Udieresis" unicode="&#xdc;" horiz-adv-x="716" 
d="M244 750l-90 -466q-11 -56 -7.5 -94t21.5 -61t51 -32.5t81 -9.5q50 0 87.5 9.5t64.5 32.5t45.5 61t29.5 94l90 466h104l-92 -477q-14 -75 -39 -128.5t-65.5 -88.5t-97.5 -51.5t-136 -16.5q-299 0 -240 302l89 460h104zM327 918h93l-20 -106h-93zM505 918h93l-20 -106h-93
z" />
    <glyph glyph-name="Yacute" unicode="&#xdd;" horiz-adv-x="586" 
d="M336 316l-61 -316h-103l60 314l-153 436h107l68 -222q5 -17 9.5 -31.5t9 -31t10 -35t11.5 -42.5q27 48 49 80t42 60l152 222h115zM425 940h132l-136 -134h-108z" />
    <glyph glyph-name="Thorn" unicode="&#xde;" horiz-adv-x="643" 
d="M150 750h102l-28 -145h153q58 0 104.5 -9t76 -32.5t40.5 -65t-2 -105.5l-9 -47q-12 -61 -32.5 -99t-54.5 -59t-83 -28.5t-118 -7.5h-163l-29 -152h-102zM206 512l-53 -269h144q51 0 84.5 5t54.5 17t32 32.5t17 52.5l12 63q6 27 3 46t-16.5 30.5t-40.5 17t-69 5.5h-168z
" />
    <glyph glyph-name="germandbls" unicode="&#xdf;" horiz-adv-x="574" 
d="M172 87h84q58 0 89 29t43 90l5 26q6 28 6 51.5t-10.5 40t-34 25.5t-63.5 9h-44l16 83h34q55 0 84 31t42 97l6 30q18 90 -83 90q-52 0 -84.5 -23.5t-41.5 -72.5l-115 -593h-100l116 598q7 37 23.5 69t44 56t67.5 37.5t94 13.5q58 0 96 -15.5t58.5 -40.5t26 -57.5
t-1.5 -66.5l-5 -27q-5 -22 -13 -47t-22.5 -48t-36 -42t-51.5 -28q34 -6 55.5 -22.5t32.5 -39.5t12 -51.5t-5 -58.5l-9 -47q-8 -39 -21.5 -72.5t-40 -58t-68.5 -38.5t-105 -14h-96z" />
    <glyph glyph-name="agrave" unicode="&#xe0;" horiz-adv-x="532" 
d="M396 0h-87l-1 45q-33 -22 -77.5 -38.5t-104.5 -16.5q-77 0 -109.5 45.5t-15.5 129.5l3 15q10 49 31 79.5t53.5 47t77 22t100.5 5.5h94l6 29q6 31 6 53t-9 36t-29.5 20.5t-55.5 6.5q-32 0 -75.5 -8t-84.5 -22l16 85q45 17 87 23.5t81 6.5q62 0 98 -17t53 -45.5t18 -65.5
t-6 -77zM318 120l27 135h-83q-44 0 -72.5 -3t-46 -12t-26.5 -25.5t-15 -44.5l-3 -14q-17 -80 53 -80q18 0 39.5 3t43.5 9t43.5 14t39.5 18zM381 606h-102l-80 134h124z" />
    <glyph glyph-name="aacute" unicode="&#xe1;" horiz-adv-x="532" 
d="M396 0h-87l-1 45q-33 -22 -77.5 -38.5t-104.5 -16.5q-77 0 -109.5 45.5t-15.5 129.5l3 15q10 49 31 79.5t53.5 47t77 22t100.5 5.5h94l6 29q6 31 6 53t-9 36t-29.5 20.5t-55.5 6.5q-32 0 -75.5 -8t-84.5 -22l16 85q45 17 87 23.5t81 6.5q62 0 98 -17t53 -45.5t18 -65.5
t-6 -77zM318 120l27 135h-83q-44 0 -72.5 -3t-46 -12t-26.5 -25.5t-15 -44.5l-3 -14q-17 -80 53 -80q18 0 39.5 3t43.5 9t43.5 14t39.5 18zM354 740h132l-136 -134h-108z" />
    <glyph glyph-name="acircumflex" unicode="&#xe2;" horiz-adv-x="532" 
d="M396 0h-87l-1 45q-33 -22 -77.5 -38.5t-104.5 -16.5q-77 0 -109.5 45.5t-15.5 129.5l3 15q10 49 31 79.5t53.5 47t77 22t100.5 5.5h94l6 29q6 31 6 53t-9 36t-29.5 20.5t-55.5 6.5q-32 0 -75.5 -8t-84.5 -22l16 85q45 17 87 23.5t81 6.5q62 0 98 -17t53 -45.5t18 -65.5
t-6 -77zM318 120l27 135h-83q-44 0 -72.5 -3t-46 -12t-26.5 -25.5t-15 -44.5l-3 -14q-17 -80 53 -80q18 0 39.5 3t43.5 9t43.5 14t39.5 18zM318 754h87l68 -148h-75l-45 80l-78 -80h-83z" />
    <glyph glyph-name="atilde" unicode="&#xe3;" horiz-adv-x="532" 
d="M396 0h-87l-1 45q-33 -22 -77.5 -38.5t-104.5 -16.5q-77 0 -109.5 45.5t-15.5 129.5l3 15q10 49 31 79.5t53.5 47t77 22t100.5 5.5h94l6 29q6 31 6 53t-9 36t-29.5 20.5t-55.5 6.5q-32 0 -75.5 -8t-84.5 -22l16 85q45 17 87 23.5t81 6.5q62 0 98 -17t53 -45.5t18 -65.5
t-6 -77zM318 120l27 135h-83q-44 0 -72.5 -3t-46 -12t-26.5 -25.5t-15 -44.5l-3 -14q-17 -80 53 -80q18 0 39.5 3t43.5 9t43.5 14t39.5 18zM391 608q-21 0 -34.5 9t-24 19.5l-19.5 19.5t-21 9q-17 0 -29 -18.5t-18 -36.5h-76q8 22 18.5 45.5t25 42t34.5 30.5t46 12
q21 0 35 -9t25 -19.5t20.5 -19.5t21.5 -9q20 0 30 17.5t15 39.5h76q-6 -21 -16 -44.5t-25 -43t-35.5 -32t-48.5 -12.5z" />
    <glyph glyph-name="adieresis" unicode="&#xe4;" horiz-adv-x="532" 
d="M396 0h-87l-1 45q-33 -22 -77.5 -38.5t-104.5 -16.5q-77 0 -109.5 45.5t-15.5 129.5l3 15q10 49 31 79.5t53.5 47t77 22t100.5 5.5h94l6 29q6 31 6 53t-9 36t-29.5 20.5t-55.5 6.5q-32 0 -75.5 -8t-84.5 -22l16 85q45 17 87 23.5t81 6.5q62 0 98 -17t53 -45.5t18 -65.5
t-6 -77zM318 120l27 135h-83q-44 0 -72.5 -3t-46 -12t-26.5 -25.5t-15 -44.5l-3 -14q-17 -80 53 -80q18 0 39.5 3t43.5 9t43.5 14t39.5 18zM215 718h93l-20 -106h-93zM393 718h93l-20 -106h-93z" />
    <glyph glyph-name="aring" unicode="&#xe5;" horiz-adv-x="532" 
d="M396 0h-87l-1 45q-33 -22 -77.5 -38.5t-104.5 -16.5q-77 0 -109.5 45.5t-15.5 129.5l3 15q10 49 31 79.5t53.5 47t77 22t100.5 5.5h94l6 29q6 31 6 53t-9 36t-29.5 20.5t-55.5 6.5q-32 0 -75.5 -8t-84.5 -22l16 85q45 17 87 23.5t81 6.5q62 0 98 -17t53 -45.5t18 -65.5
t-6 -77zM318 120l27 135h-83q-44 0 -72.5 -3t-46 -12t-26.5 -25.5t-15 -44.5l-3 -14q-17 -80 53 -80q18 0 39.5 3t43.5 9t43.5 14t39.5 18zM340 643q23 0 41 16.5t18 45.5q0 17 -11 28t-30 11q-23 0 -40.5 -18t-17.5 -45q0 -18 11 -28t29 -10zM333 589q-40 0 -65.5 26
t-25.5 62q0 25 10 47.5t27 38.5t39.5 25.5t47.5 9.5q41 0 66 -25.5t25 -61.5q0 -25 -9.5 -47t-26.5 -38.5t-39.5 -26.5t-48.5 -10z" />
    <glyph glyph-name="ae" unicode="&#xe6;" horiz-adv-x="874" 
d="M805 251h-359l-5 -27q-7 -33 -6 -60.5t14.5 -46.5t42 -29.5t77.5 -10.5q31 0 73 5t84 19l-17 -83q-37 -15 -81.5 -21.5t-79.5 -6.5q-60 0 -108 16t-70 57q-57 -35 -115 -54t-127 -19q-80 0 -110 48t-15 127l4 21q9 46 28.5 74t51 43.5t75.5 21t100 5.5h100l6 33
q6 31 6 52.5t-9 35.5t-29.5 20.5t-55.5 6.5q-32 0 -75.5 -8t-84.5 -22l16 86q47 16 86.5 23t81.5 7q61 0 94 -17t49 -50q33 32 80 49.5t96 17.5q54 0 96 -13.5t68 -45t33.5 -84t-7.5 -129.5zM320 120l26 131h-83q-42 0 -70 -2.5t-45.5 -10.5t-27.5 -24t-16 -44l-4 -19
q-8 -40 5.5 -57.5t46.5 -17.5q16 0 37.5 3t44.5 9t45.5 14t40.5 18zM723 330l1 7q6 31 4.5 57t-13.5 45t-35 29.5t-60 10.5q-69 0 -106 -38t-50 -98l-2 -13h261z" />
    <glyph glyph-name="ccedilla" unicode="&#xe7;" horiz-adv-x="497" 
d="M169 -263q-20 0 -43.5 1.5t-43.5 5.5l14 70q14 -2 28.5 -3t33.5 -1q43 0 58.5 12t18.5 26l2 10q4 20 -10.5 29t-53.5 9h-29l19 99q-179 31 -136 253l12 62q13 69 37.5 117.5t60.5 79t83 44t107 13.5q41 0 81 -5.5t66 -17.5l-15 -84q-23 8 -58 13.5t-73 5.5
q-49 0 -82 -12.5t-54 -34.5t-33 -51.5t-19 -63.5l-15 -76q-7 -36 -7 -65.5t13 -50t41 -32t77 -11.5q32 0 70 5t80 19l-17 -86q-29 -14 -67 -20t-66 -8l-8 -43q52 -4 75 -28.5t15 -65.5l-2 -10q-6 -31 -20 -51t-34.5 -32t-47.5 -17t-58 -5z" />
    <glyph glyph-name="egrave" unicode="&#xe8;" horiz-adv-x="556" 
d="M486 246h-360l-4 -22q-7 -33 -6 -60.5t14.5 -46.5t42 -29.5t77.5 -10.5q32 0 74 5t84 19l-17 -83q-37 -15 -76.5 -21.5t-74.5 -6.5q-134 0 -186.5 63t-26.5 195l12 62q13 69 38 117.5t59.5 78.5t77.5 44t93 14q54 0 95.5 -15t67 -47.5t32.5 -84.5t-7 -125zM404 325l1 7
q6 31 4 57.5t-13.5 46.5t-34.5 31.5t-60 11.5q-35 0 -62 -11.5t-46.5 -31.5t-31.5 -46.5t-18 -57.5l-1 -7h262zM372 606h-102l-80 134h124z" />
    <glyph glyph-name="eacute" unicode="&#xe9;" horiz-adv-x="556" 
d="M486 246h-360l-4 -22q-7 -33 -6 -60.5t14.5 -46.5t42 -29.5t77.5 -10.5q32 0 74 5t84 19l-17 -83q-37 -15 -76.5 -21.5t-74.5 -6.5q-134 0 -186.5 63t-26.5 195l12 62q13 69 38 117.5t59.5 78.5t77.5 44t93 14q54 0 95.5 -15t67 -47.5t32.5 -84.5t-7 -125zM404 325l1 7
q6 31 4 57.5t-13.5 46.5t-34.5 31.5t-60 11.5q-35 0 -62 -11.5t-46.5 -31.5t-31.5 -46.5t-18 -57.5l-1 -7h262zM361 740h132l-136 -134h-108z" />
    <glyph glyph-name="ecircumflex" unicode="&#xea;" horiz-adv-x="556" 
d="M486 246h-360l-4 -22q-7 -33 -6 -60.5t14.5 -46.5t42 -29.5t77.5 -10.5q32 0 74 5t84 19l-17 -83q-37 -15 -76.5 -21.5t-74.5 -6.5q-134 0 -186.5 63t-26.5 195l12 62q13 69 38 117.5t59.5 78.5t77.5 44t93 14q54 0 95.5 -15t67 -47.5t32.5 -84.5t-7 -125zM404 325l1 7
q6 31 4 57.5t-13.5 46.5t-34.5 31.5t-60 11.5q-35 0 -62 -11.5t-46.5 -31.5t-31.5 -46.5t-18 -57.5l-1 -7h262zM304 754h87l68 -148h-75l-45 80l-78 -80h-83z" />
    <glyph glyph-name="edieresis" unicode="&#xeb;" horiz-adv-x="556" 
d="M486 246h-360l-4 -22q-7 -33 -6 -60.5t14.5 -46.5t42 -29.5t77.5 -10.5q32 0 74 5t84 19l-17 -83q-37 -15 -76.5 -21.5t-74.5 -6.5q-134 0 -186.5 63t-26.5 195l12 62q13 69 38 117.5t59.5 78.5t77.5 44t93 14q54 0 95.5 -15t67 -47.5t32.5 -84.5t-7 -125zM404 325l1 7
q6 31 4 57.5t-13.5 46.5t-34.5 31.5t-60 11.5q-35 0 -62 -11.5t-46.5 -31.5t-31.5 -46.5t-18 -57.5l-1 -7h262zM210 718h93l-20 -106h-93zM388 718h93l-20 -106h-93z" />
    <glyph glyph-name="igrave" unicode="&#xec;" horiz-adv-x="252" 
d="M103 0h-100l107 552h100zM217 606h-102l-80 134h124z" />
    <glyph glyph-name="iacute" unicode="&#xed;" horiz-adv-x="247" 
d="M95 0h-100l107 552h100zM224 740h133l-137 -135h-109z" />
    <glyph glyph-name="icircumflex" unicode="&#xee;" horiz-adv-x="245" 
d="M103 0h-100l107 552h100zM153 754h87l68 -148h-75l-45 80l-78 -80h-83z" />
    <glyph glyph-name="idieresis" unicode="&#xef;" horiz-adv-x="260" 
d="M103 0h-100l107 552h100zM59 718h93l-20 -106h-93zM237 718h93l-20 -106h-93z" />
    <glyph glyph-name="eth" unicode="&#xf0;" horiz-adv-x="581" 
d="M180 627l100 40q-16 11 -32 21t-33 19l42 67q63 -31 114 -71l119 48l11 -58l-82 -33q65 -69 89 -160t1 -210l-10 -52q-23 -121 -92.5 -184.5t-183.5 -63.5q-113 0 -166.5 67.5t-30.5 188.5l10 52q23 121 92.5 184.5t182.5 63.5q27 0 50.5 -6t43.5 -21q-12 29 -31 56
t-43 50l-141 -56zM409 294q17 89 -12.5 127t-92.5 38t-107 -38t-61 -127l-10 -52q-17 -89 12.5 -127t91.5 -38q64 0 108 38t61 127z" />
    <glyph glyph-name="ntilde" unicode="&#xf1;" 
d="M444 0h-100l72 373q10 49 0.5 75t-58.5 26q-36 0 -82 -12.5t-92 -38.5l-81 -423h-100l107 552h89l2 -43q43 25 88.5 40t89.5 15q45 0 75.5 -12t47.5 -34.5t21 -54t-3 -69.5zM401 608q-21 0 -34.5 9t-24 19.5l-19.5 19.5t-21 9q-17 0 -29 -18.5t-18 -36.5h-76
q8 22 18.5 45.5t25 42t34.5 30.5t46 12q21 0 35 -9t25 -19.5t20.5 -19.5t21.5 -9q20 0 30 17.5t15 39.5h76q-6 -21 -16 -44.5t-25 -43t-35.5 -32t-48.5 -12.5z" />
    <glyph glyph-name="ograve" unicode="&#xf2;" horiz-adv-x="580" 
d="M498 238q-23 -121 -92.5 -184.5t-183.5 -63.5q-113 0 -166.5 67.5t-30.5 188.5l14 70q23 121 92.5 184.5t182.5 63.5q114 0 167.5 -67.5t30.5 -188.5zM412 312q17 89 -12.5 127t-92.5 38t-107 -38t-61 -127l-14 -70q-17 -89 12.5 -127t91.5 -38q64 0 108 38t61 127z
M396 606h-102l-80 134h124z" />
    <glyph glyph-name="oacute" unicode="&#xf3;" horiz-adv-x="580" 
d="M498 238q-23 -121 -92.5 -184.5t-183.5 -63.5q-113 0 -166.5 67.5t-30.5 188.5l14 70q23 121 92.5 184.5t182.5 63.5q114 0 167.5 -67.5t30.5 -188.5zM412 312q17 89 -12.5 127t-92.5 38t-107 -38t-61 -127l-14 -70q-17 -89 12.5 -127t91.5 -38q64 0 108 38t61 127z
M383 740h132l-136 -134h-108z" />
    <glyph glyph-name="ocircumflex" unicode="&#xf4;" horiz-adv-x="580" 
d="M498 238q-23 -121 -92.5 -184.5t-183.5 -63.5q-113 0 -166.5 67.5t-30.5 188.5l14 70q23 121 92.5 184.5t182.5 63.5q114 0 167.5 -67.5t30.5 -188.5zM412 312q17 89 -12.5 127t-92.5 38t-107 -38t-61 -127l-14 -70q-17 -89 12.5 -127t91.5 -38q64 0 108 38t61 127z
M314 754h87l68 -148h-75l-45 80l-78 -80h-83z" />
    <glyph glyph-name="otilde" unicode="&#xf5;" horiz-adv-x="580" 
d="M498 238q-23 -121 -92.5 -184.5t-183.5 -63.5q-113 0 -166.5 67.5t-30.5 188.5l14 70q23 121 92.5 184.5t182.5 63.5q114 0 167.5 -67.5t30.5 -188.5zM412 312q17 89 -12.5 127t-92.5 38t-107 -38t-61 -127l-14 -70q-17 -89 12.5 -127t91.5 -38q64 0 108 38t61 127z
M395 608q-21 0 -34.5 9t-24 19.5l-19.5 19.5t-21 9q-17 0 -29 -18.5t-18 -36.5h-76q8 22 18.5 45.5t25 42t34.5 30.5t46 12q21 0 35 -9t25 -19.5t20.5 -19.5t21.5 -9q20 0 30 17.5t15 39.5h76q-6 -21 -16 -44.5t-25 -43t-35.5 -32t-48.5 -12.5z" />
    <glyph glyph-name="odieresis" unicode="&#xf6;" horiz-adv-x="580" 
d="M498 238q-23 -121 -92.5 -184.5t-183.5 -63.5q-113 0 -166.5 67.5t-30.5 188.5l14 70q23 121 92.5 184.5t182.5 63.5q114 0 167.5 -67.5t30.5 -188.5zM412 312q17 89 -12.5 127t-92.5 38t-107 -38t-61 -127l-14 -70q-17 -89 12.5 -127t91.5 -38q64 0 108 38t61 127z
M220 718h93l-20 -106h-93zM398 718h93l-20 -106h-93z" />
    <glyph glyph-name="divide" unicode="&#xf7;" horiz-adv-x="568" 
d="M48 394h481l-19 -94h-481zM194 218h116l-23 -125h-116zM269 600h116l-23 -125h-116z" />
    <glyph glyph-name="oslash" unicode="&#xf8;" horiz-adv-x="601" 
d="M509 238q-23 -121 -92.5 -184.5t-183.5 -63.5q-73 0 -122 29l-52 -62h-90l91 108q-46 68 -24 181l14 70q23 121 92.5 184.5t182.5 63.5q78 0 128 -33l45 53h90l-86 -102q20 -32 26 -76t-5 -98zM318 477q-63 0 -107 -38t-61 -127l-14 -70q-11 -56 -3 -90l258 306
q-26 19 -73 19zM423 312q9 47 4 82l-254 -302q27 -15 67 -15q64 0 108 38t61 127z" />
    <glyph glyph-name="ugrave" unicode="&#xf9;" horiz-adv-x="577" 
d="M105 552h100l-73 -372q-5 -24 -6 -43t4.5 -32t19 -19.5t38.5 -6.5q35 0 79.5 13.5t91.5 40.5l82 419h100l-107 -552h-89l-2 45q-42 -24 -83.5 -39.5t-91.5 -15.5q-45 0 -75.5 12.5t-47 35.5t-20.5 55t4 71zM395 606h-102l-80 134h124z" />
    <glyph glyph-name="uacute" unicode="&#xfa;" horiz-adv-x="577" 
d="M105 552h100l-73 -372q-5 -24 -6 -43t4.5 -32t19 -19.5t38.5 -6.5q35 0 79.5 13.5t91.5 40.5l82 419h100l-107 -552h-89l-2 45q-42 -24 -83.5 -39.5t-91.5 -15.5q-45 0 -75.5 12.5t-47 35.5t-20.5 55t4 71zM391 740h132l-136 -134h-108z" />
    <glyph glyph-name="ucircumflex" unicode="&#xfb;" horiz-adv-x="577" 
d="M105 552h100l-73 -372q-5 -24 -6 -43t4.5 -32t19 -19.5t38.5 -6.5q35 0 79.5 13.5t91.5 40.5l82 419h100l-107 -552h-89l-2 45q-42 -24 -83.5 -39.5t-91.5 -15.5q-45 0 -75.5 12.5t-47 35.5t-20.5 55t4 71zM323 754h87l68 -148h-75l-45 80l-78 -80h-83z" />
    <glyph glyph-name="udieresis" unicode="&#xfc;" horiz-adv-x="577" 
d="M105 552h100l-73 -372q-5 -24 -6 -43t4.5 -32t19 -19.5t38.5 -6.5q35 0 79.5 13.5t91.5 40.5l82 419h100l-107 -552h-89l-2 45q-42 -24 -83.5 -39.5t-91.5 -15.5q-45 0 -75.5 12.5t-47 35.5t-20.5 55t4 71zM222 718h93l-20 -106h-93zM400 718h93l-20 -106h-93z" />
    <glyph glyph-name="yacute" unicode="&#xfd;" horiz-adv-x="523" 
d="M551 552l-427 -768h-102l118 217l-93 551h104l49 -346q2 -19 4.5 -45.5t3.5 -68.5h1q14 37 27.5 66.5t23.5 47.5l186 346h105zM360 740h132l-136 -134h-108z" />
    <glyph glyph-name="thorn" unicode="&#xfe;" horiz-adv-x="598" 
d="M149 744l105 30l-51 -263q35 20 80 36.5t102 16.5q49 0 82.5 -17t52 -46t23.5 -66.5t-3 -79.5l-27 -142q-11 -60 -31 -102.5t-51.5 -69.5t-76 -39.5t-105.5 -12.5q-13 0 -32 1.5t-40 5t-40.5 8t-32.5 10.5l-44 -230h-100zM123 100q26 -11 60 -17t64 -6q46 0 76 13t48 35
t27.5 49.5t15.5 56.5l21 103q14 71 -1.5 105.5t-78.5 34.5q-45 0 -90 -15t-79 -33z" />
    <glyph glyph-name="ydieresis" unicode="&#xff;" horiz-adv-x="523" 
d="M551 552l-427 -768h-102l118 217l-93 551h104l49 -346q2 -19 4.5 -45.5t3.5 -68.5h1q14 37 27.5 66.5t23.5 47.5l186 346h105zM189 718h93l-20 -106h-93zM367 718h93l-20 -106h-93z" />
    <glyph glyph-name="Amacron" unicode="&#x100;" horiz-adv-x="667" 
d="M585 0h-108l-33 211h-287l-112 -211h-108l411 750h100zM207 305h221l-27 195q-5 35 -10 67.5t-8 71.5q-17 -39 -34.5 -72t-35.5 -67zM296 920h284l-16 -80h-284z" />
    <glyph glyph-name="amacron" unicode="&#x101;" horiz-adv-x="532" 
d="M396 0h-87l-1 45q-33 -22 -77.5 -38.5t-104.5 -16.5q-77 0 -109.5 45.5t-15.5 129.5l3 15q10 49 31 79.5t53.5 47t77 22t100.5 5.5h94l6 29q6 31 6 53t-9 36t-29.5 20.5t-55.5 6.5q-32 0 -75.5 -8t-84.5 -22l16 85q45 17 87 23.5t81 6.5q62 0 98 -17t53 -45.5t18 -65.5
t-6 -77zM318 120l27 135h-83q-44 0 -72.5 -3t-46 -12t-26.5 -25.5t-15 -44.5l-3 -14q-17 -80 53 -80q18 0 39.5 3t43.5 9t43.5 14t39.5 18zM209 720h284l-16 -80h-284z" />
    <glyph glyph-name="Abreve" unicode="&#x102;" horiz-adv-x="667" 
d="M585 0h-108l-33 211h-287l-112 -211h-108l411 750h100zM207 305h221l-27 195q-5 35 -10 67.5t-8 71.5q-17 -39 -34.5 -72t-35.5 -67zM410 806q-31 0 -53.5 10.5t-36.5 29t-20.5 43.5t-4.5 55h69q-2 -29 10 -47.5t44 -18.5t50 18.5t26 47.5h74q-6 -28 -18 -53t-31 -44
t-46 -30t-63 -11z" />
    <glyph glyph-name="abreve" unicode="&#x103;" horiz-adv-x="532" 
d="M396 0h-87l-1 45q-33 -22 -77.5 -38.5t-104.5 -16.5q-77 0 -109.5 45.5t-15.5 129.5l3 15q10 49 31 79.5t53.5 47t77 22t100.5 5.5h94l6 29q6 31 6 53t-9 36t-29.5 20.5t-55.5 6.5q-32 0 -75.5 -8t-84.5 -22l16 85q45 17 87 23.5t81 6.5q62 0 98 -17t53 -45.5t18 -65.5
t-6 -77zM318 120l27 135h-83q-44 0 -72.5 -3t-46 -12t-26.5 -25.5t-15 -44.5l-3 -14q-17 -80 53 -80q18 0 39.5 3t43.5 9t43.5 14t39.5 18zM334 606q-31 0 -53.5 10.5t-36.5 29t-20.5 43.5t-4.5 55h69q-2 -29 10 -47.5t44 -18.5t50 18.5t26 47.5h74q-6 -28 -18 -53t-31 -44
t-46 -30t-63 -11z" />
    <glyph glyph-name="Aogonek" unicode="&#x104;" horiz-adv-x="667" 
d="M493 -223q-65 0 -96.5 28.5t-23.5 70.5l2 10q3 17 13.5 33.5t25 30.5t31 25.5t33.5 18.5l-34 217h-287l-112 -211h-108l411 750h100l137 -750q-44 -21 -73.5 -50t-34.5 -52l-2 -10q-4 -20 9 -28t39 -8q15 0 30 2t26 5l-15 -71q-14 -4 -29 -7.5t-42 -3.5zM207 305h221
l-27 195q-5 35 -10 67.5t-8 71.5q-17 -39 -34.5 -72t-35.5 -67z" />
    <glyph glyph-name="aogonek" unicode="&#x105;" horiz-adv-x="532" 
d="M396 0h-87l-1 45q-33 -22 -77.5 -38.5t-104.5 -16.5q-77 0 -109.5 45.5t-15.5 129.5l3 15q10 49 31 79.5t53.5 47t77 22t100.5 5.5h94l6 29q6 31 6 53t-9 36t-29.5 20.5t-55.5 6.5q-32 0 -75.5 -8t-84.5 -22l16 85q45 17 87 23.5t81 6.5q62 0 98 -17t53 -45.5t18 -65.5
t-6 -77zM318 120l27 135h-83q-44 0 -72.5 -3t-46 -12t-26.5 -25.5t-15 -44.5l-3 -14q-17 -80 53 -80q18 0 39.5 3t43.5 9t43.5 14t39.5 18zM396 0q-44 -21 -73.5 -50t-34.5 -52l-2 -10q-4 -20 9 -28t39 -8q15 0 30 2t26 5l-15 -71q-14 -4 -29 -7.5t-42 -3.5
q-65 0 -96.5 28.5t-23.5 70.5l2 10q4 19 16.5 37.5t30 33.5t38 26.5t38.5 16.5h87z" />
    <glyph glyph-name="Cacute" unicode="&#x106;" horiz-adv-x="602" 
d="M605 647q-14 5 -33 9t-41.5 6.5t-47 4t-47.5 1.5q-76 0 -124 -18t-77.5 -48.5t-44 -71.5t-23.5 -86l-26 -131q-9 -47 -11.5 -89t14 -73.5t58 -49.5t119.5 -18q39 0 88 4.5t102 20.5l-17 -89q-48 -18 -97.5 -24.5t-89.5 -6.5q-91 0 -150.5 19t-92 60t-38 104t11.5 152
l24 122q18 94 50.5 155.5t79 97.5t108 50t139.5 14q48 0 99 -5.5t85 -19.5zM462 940h132l-136 -134h-108z" />
    <glyph glyph-name="cacute" unicode="&#x107;" horiz-adv-x="497" 
d="M474 541l-15 -84q-23 8 -58 13.5t-73 5.5q-49 0 -82 -12.5t-54 -34.5t-33 -51.5t-19 -63.5l-15 -76q-7 -36 -7 -65.5t13 -50t41 -32t77 -11.5q32 0 70 5t80 19l-17 -86q-16 -8 -36 -13.5t-40 -8.5t-38.5 -4.5t-31.5 -1.5q-131 0 -183 63t-26 196l12 62q13 69 37.5 117.5
t60.5 79t83 44t107 13.5q41 0 81 -5.5t66 -17.5zM355 740h132l-136 -134h-108z" />
    <glyph glyph-name="Ccircumflex" unicode="&#x108;" horiz-adv-x="602" 
d="M605 647q-14 5 -33 9t-41.5 6.5t-47 4t-47.5 1.5q-76 0 -124 -18t-77.5 -48.5t-44 -71.5t-23.5 -86l-26 -131q-9 -47 -11.5 -89t14 -73.5t58 -49.5t119.5 -18q39 0 88 4.5t102 20.5l-17 -89q-48 -18 -97.5 -24.5t-89.5 -6.5q-91 0 -150.5 19t-92 60t-38 104t11.5 152
l24 122q18 94 50.5 155.5t79 97.5t108 50t139.5 14q48 0 99 -5.5t85 -19.5zM410 954h87l68 -148h-75l-45 80l-78 -80h-83z" />
    <glyph glyph-name="ccircumflex" unicode="&#x109;" horiz-adv-x="497" 
d="M474 541l-15 -84q-23 8 -58 13.5t-73 5.5q-49 0 -82 -12.5t-54 -34.5t-33 -51.5t-19 -63.5l-15 -76q-7 -36 -7 -65.5t13 -50t41 -32t77 -11.5q32 0 70 5t80 19l-17 -86q-16 -8 -36 -13.5t-40 -8.5t-38.5 -4.5t-31.5 -1.5q-131 0 -183 63t-26 196l12 62q13 69 37.5 117.5
t60.5 79t83 44t107 13.5q41 0 81 -5.5t66 -17.5zM312 754h87l68 -148h-75l-45 80l-78 -80h-83z" />
    <glyph glyph-name="Cdotaccent" unicode="&#x10a;" horiz-adv-x="602" 
d="M605 647q-14 5 -33 9t-41.5 6.5t-47 4t-47.5 1.5q-76 0 -124 -18t-77.5 -48.5t-44 -71.5t-23.5 -86l-26 -131q-9 -47 -11.5 -89t14 -73.5t58 -49.5t119.5 -18q39 0 88 4.5t102 20.5l-17 -89q-48 -18 -97.5 -24.5t-89.5 -6.5q-91 0 -150.5 19t-92 60t-38 104t11.5 152
l24 122q18 94 50.5 155.5t79 97.5t108 50t139.5 14q48 0 99 -5.5t85 -19.5zM404 918h96l-20 -106h-96z" />
    <glyph glyph-name="cdotaccent" unicode="&#x10b;" horiz-adv-x="497" 
d="M474 541l-15 -84q-23 8 -58 13.5t-73 5.5q-49 0 -82 -12.5t-54 -34.5t-33 -51.5t-19 -63.5l-15 -76q-7 -36 -7 -65.5t13 -50t41 -32t77 -11.5q32 0 70 5t80 19l-17 -86q-16 -8 -36 -13.5t-40 -8.5t-38.5 -4.5t-31.5 -1.5q-131 0 -183 63t-26 196l12 62q13 69 37.5 117.5
t60.5 79t83 44t107 13.5q41 0 81 -5.5t66 -17.5zM308 718h96l-20 -106h-96z" />
    <glyph glyph-name="Ccaron" unicode="&#x10c;" horiz-adv-x="602" 
d="M605 647q-14 5 -33 9t-41.5 6.5t-47 4t-47.5 1.5q-76 0 -124 -18t-77.5 -48.5t-44 -71.5t-23.5 -86l-26 -131q-9 -47 -11.5 -89t14 -73.5t58 -49.5t119.5 -18q39 0 88 4.5t102 20.5l-17 -89q-48 -18 -97.5 -24.5t-89.5 -6.5q-91 0 -150.5 19t-92 60t-38 104t11.5 152
l24 122q18 94 50.5 155.5t79 97.5t108 50t139.5 14q48 0 99 -5.5t85 -19.5zM473 796h-87l-68 148h75l45 -80l77 80h84z" />
    <glyph glyph-name="ccaron" unicode="&#x10d;" horiz-adv-x="497" 
d="M474 541l-15 -84q-23 8 -58 13.5t-73 5.5q-49 0 -82 -12.5t-54 -34.5t-33 -51.5t-19 -63.5l-15 -76q-7 -36 -7 -65.5t13 -50t41 -32t77 -11.5q32 0 70 5t80 19l-17 -86q-16 -8 -36 -13.5t-40 -8.5t-38.5 -4.5t-31.5 -1.5q-131 0 -183 63t-26 196l12 62q13 69 37.5 117.5
t60.5 79t83 44t107 13.5q41 0 81 -5.5t66 -17.5zM370 596h-87l-68 148h75l45 -80l77 80h84z" />
    <glyph glyph-name="Dcaron" unicode="&#x10e;" horiz-adv-x="695" 
d="M5 0l145 750h240q91 0 149.5 -19t89 -60.5t35 -106.5t-13.5 -156l-19 -98q-18 -90 -42.5 -150t-65 -95.5t-101.5 -50t-152 -14.5h-265zM234 655l-109 -560h148q70 0 115 14t72.5 41t42 67t24.5 93l24 122q10 52 11.5 93t-14.5 70t-54 44.5t-107 15.5h-153zM485 796h-87
l-68 148h75l45 -80l77 80h84z" />
    <glyph glyph-name="dcaron" unicode="&#x10f;" horiz-adv-x="641" 
d="M763 761l-63 -167h-76l41 167h98zM177 -10q-52 0 -86.5 16.5t-53 45t-22.5 66t4 79.5l30 151q12 60 34.5 101t55 66.5t74.5 37t93 11.5q18 0 39.5 -2.5t42 -7t38.5 -11t28 -13.5l43 214l105 30l-150 -774h-90l-2 43q-47 -26 -89.5 -39.5t-93.5 -13.5zM376 130l62 315
q-12 8 -27 14t-31.5 9.5t-32 5.5t-28.5 2q-33 0 -60.5 -6t-49 -21.5t-37 -42t-23.5 -68.5l-26 -133q-13 -63 4.5 -94.5t71.5 -31.5q40 0 88 13.5t89 37.5z" />
    <glyph glyph-name="Dcroat" unicode="&#x110;" horiz-adv-x="705" 
d="M15 0l65 339h-79l17 93h80l62 318h240q91 0 149.5 -19t89 -60.5t35 -106.5t-13.5 -156l-19 -98q-18 -90 -42.5 -150t-65 -95.5t-101.5 -50t-152 -14.5h-265zM244 655l-44 -223h204l-17 -93h-205l-47 -244h148q70 0 115 14t72.5 41t42 67t24.5 93l24 122q10 52 11.5 93
t-14.5 70t-54 44.5t-107 15.5h-153z" />
    <glyph glyph-name="dcroat" unicode="&#x111;" horiz-adv-x="605" 
d="M177 -10q-52 0 -86.5 16.5t-53 45t-22.5 66t4 79.5l28 139q12 60 35 101t56 66.5t74.5 37t91.5 11.5q18 0 39.5 -2.5t42 -7t38.5 -11t28 -13.5l18 90h-149l14 71h149l13 65l105 30l-19 -95h65l-14 -71h-64l-118 -608h-90l-2 43q-47 -26 -89.5 -39.5t-93.5 -13.5zM376 130
l60 303q-12 8 -27 14t-31.5 9.5t-32 5.5t-28.5 2q-33 0 -60.5 -6t-49 -21.5t-37 -42t-23.5 -68.5l-24 -121q-13 -63 4.5 -94.5t71.5 -31.5q40 0 88 13.5t89 37.5z" />
    <glyph glyph-name="Emacron" unicode="&#x112;" horiz-adv-x="593" 
d="M612 750l-18 -95h-360l-43 -221h328l-18 -93h-328l-48 -246h374l-18 -95h-476l145 750h462zM278 920h284l-16 -80h-284z" />
    <glyph glyph-name="emacron" unicode="&#x113;" horiz-adv-x="556" 
d="M486 246h-360l-4 -22q-7 -33 -6 -60.5t14.5 -46.5t42 -29.5t77.5 -10.5q32 0 74 5t84 19l-17 -83q-37 -15 -76.5 -21.5t-74.5 -6.5q-134 0 -186.5 63t-26.5 195l12 62q13 69 38 117.5t59.5 78.5t77.5 44t93 14q54 0 95.5 -15t67 -47.5t32.5 -84.5t-7 -125zM404 325l1 7
q6 31 4 57.5t-13.5 46.5t-34.5 31.5t-60 11.5q-35 0 -62 -11.5t-46.5 -31.5t-31.5 -46.5t-18 -57.5l-1 -7h262zM205 720h284l-16 -80h-284z" />
    <glyph glyph-name="Ebreve" unicode="&#x114;" horiz-adv-x="593" 
d="M612 750l-18 -95h-360l-43 -221h328l-18 -93h-328l-48 -246h374l-18 -95h-476l145 750h462zM392 806q-31 0 -53.5 10.5t-36.5 29t-20.5 43.5t-4.5 55h69q-2 -29 10 -47.5t44 -18.5t50 18.5t26 47.5h74q-6 -28 -18 -53t-31 -44t-46 -30t-63 -11z" />
    <glyph glyph-name="ebreve" unicode="&#x115;" horiz-adv-x="556" 
d="M486 246h-360l-4 -22q-7 -33 -6 -60.5t14.5 -46.5t42 -29.5t77.5 -10.5q32 0 74 5t84 19l-17 -83q-37 -15 -76.5 -21.5t-74.5 -6.5q-134 0 -186.5 63t-26.5 195l12 62q13 69 38 117.5t59.5 78.5t77.5 44t93 14q54 0 95.5 -15t67 -47.5t32.5 -84.5t-7 -125zM404 325l1 7
q6 31 4 57.5t-13.5 46.5t-34.5 31.5t-60 11.5q-35 0 -62 -11.5t-46.5 -31.5t-31.5 -46.5t-18 -57.5l-1 -7h262zM323 605q-31 0 -53.5 10.5t-36.5 29t-20.5 43.5t-4.5 55h69q-2 -29 10 -47.5t44 -18.5t50 18.5t26 47.5h74q-6 -28 -18 -53t-31 -44t-46 -30t-63 -11z" />
    <glyph glyph-name="Edotaccent" unicode="&#x116;" horiz-adv-x="593" 
d="M612 750l-18 -95h-360l-43 -221h328l-18 -93h-328l-48 -246h374l-18 -95h-476l145 750h462zM368 918h96l-20 -106h-96z" />
    <glyph glyph-name="edotaccent" unicode="&#x117;" horiz-adv-x="556" 
d="M486 246h-360l-4 -22q-7 -33 -6 -60.5t14.5 -46.5t42 -29.5t77.5 -10.5q32 0 74 5t84 19l-17 -83q-37 -15 -76.5 -21.5t-74.5 -6.5q-134 0 -186.5 63t-26.5 195l12 62q13 69 38 117.5t59.5 78.5t77.5 44t93 14q54 0 95.5 -15t67 -47.5t32.5 -84.5t-7 -125zM404 325l1 7
q6 31 4 57.5t-13.5 46.5t-34.5 31.5t-60 11.5q-35 0 -62 -11.5t-46.5 -31.5t-31.5 -46.5t-18 -57.5l-1 -7h262zM294 718h96l-20 -106h-96z" />
    <glyph glyph-name="Eogonek" unicode="&#x118;" horiz-adv-x="593" 
d="M351 -223q-65 0 -96.5 28.5t-23.5 70.5l2 10q4 19 16.5 37.5t30 33.5t37 26.5t37.5 16.5h-349l145 750h462l-18 -95h-360l-43 -221h328l-18 -93h-328l-48 -246h374l-18 -95h-38q-44 -21 -73.5 -50t-34.5 -52l-2 -10q-4 -20 9 -28t39 -8q15 0 30 2t26 5l-15 -71
q-14 -4 -29 -7.5t-42 -3.5z" />
    <glyph glyph-name="eogonek" unicode="&#x119;" horiz-adv-x="556" 
d="M486 246h-360l-4 -22q-7 -33 -6 -60.5t14.5 -46.5t42 -29.5t77.5 -10.5q32 0 74 5t84 19l-17 -83q-22 -11 -43 -26.5t-38 -32.5t-28.5 -33t-13.5 -28l-2 -10q-4 -20 9 -28t39 -8q15 0 30 2t26 5l-15 -71q-14 -4 -29 -7.5t-42 -3.5q-65 0 -96.5 28.5t-23.5 70.5l2 10
q3 16 12.5 32t23 29.5t29.5 24.5t32 19q-6 -1 -12 -1h-11q-134 0 -186.5 63t-26.5 195l12 62q13 69 38 117.5t59.5 78.5t77.5 44t93 14q54 0 95.5 -15t67 -47.5t32.5 -84.5t-7 -125zM404 325l1 7q6 31 4 57.5t-13.5 46.5t-34.5 31.5t-60 11.5q-35 0 -62 -11.5t-46.5 -31.5
t-31.5 -46.5t-18 -57.5l-1 -7h262z" />
    <glyph glyph-name="Ecaron" unicode="&#x11a;" horiz-adv-x="593" 
d="M612 750l-18 -95h-360l-43 -221h328l-18 -93h-328l-48 -246h374l-18 -95h-476l145 750h462zM436 796h-87l-68 148h75l45 -80l77 80h84z" />
    <glyph glyph-name="ecaron" unicode="&#x11b;" horiz-adv-x="556" 
d="M486 246h-360l-4 -22q-7 -33 -6 -60.5t14.5 -46.5t42 -29.5t77.5 -10.5q32 0 74 5t84 19l-17 -83q-37 -15 -76.5 -21.5t-74.5 -6.5q-134 0 -186.5 63t-26.5 195l12 62q13 69 38 117.5t59.5 78.5t77.5 44t93 14q54 0 95.5 -15t67 -47.5t32.5 -84.5t-7 -125zM404 325l1 7
q6 31 4 57.5t-13.5 46.5t-34.5 31.5t-60 11.5q-35 0 -62 -11.5t-46.5 -31.5t-31.5 -46.5t-18 -57.5l-1 -7h262zM365 596h-87l-68 148h75l45 -80l77 80h84z" />
    <glyph glyph-name="Gcircumflex" unicode="&#x11c;" horiz-adv-x="671" 
d="M611 648q-15 5 -35 8.5t-43 6t-46 4t-44 1.5q-80 0 -129.5 -17.5t-79 -48t-44 -71.5t-23.5 -87l-26 -133q-11 -51 -12.5 -93.5t16.5 -72.5t62.5 -46.5t125.5 -16.5q29 0 61.5 3t60.5 11l45 221h-151l17 91h252l-75 -385q-26 -10 -56.5 -16.5t-61.5 -10.5t-60 -6t-53 -2
q-91 0 -151.5 18.5t-94 58t-40 102.5t10.5 152l24 121q18 94 49.5 156t78 99t110 52t146.5 15q22 0 47 -1t49.5 -4t47 -7.5t40.5 -11.5zM407 954h87l68 -148h-75l-45 80l-78 -80h-83z" />
    <glyph glyph-name="gcircumflex" unicode="&#x11d;" horiz-adv-x="594" 
d="M178 -6q-53 0 -87 17t-53 46t-23 67.5t5 82.5l27 139q23 118 87.5 168t163.5 50q19 0 41 -3t43 -9t39.5 -15.5t32.5 -21.5l15 37h89l-113 -580q-10 -51 -28 -88t-49 -60.5t-77.5 -35t-112.5 -11.5q-17 0 -36 1t-38 3.5t-36 5t-30 5.5l17 85q27 -7 61 -10.5t60 -3.5
q42 0 71.5 5.5t49.5 19t32 36.5t18 58l10 54q-39 -20 -85 -31t-94 -11zM374 124l61 311q-17 19 -54.5 30t-82.5 11q-25 0 -48.5 -6.5t-43.5 -22t-35 -42.5t-23 -69l-24 -122q-14 -67 3 -99t77 -32q43 0 85.5 11t84.5 30zM313 754h87l68 -148h-75l-45 80l-78 -80h-83z" />
    <glyph glyph-name="Gbreve" unicode="&#x11e;" horiz-adv-x="671" 
d="M611 648q-15 5 -35 8.5t-43 6t-46 4t-44 1.5q-80 0 -129.5 -17.5t-79 -48t-44 -71.5t-23.5 -87l-26 -133q-11 -51 -12.5 -93.5t16.5 -72.5t62.5 -46.5t125.5 -16.5q29 0 61.5 3t60.5 11l45 221h-151l17 91h252l-75 -385q-26 -10 -56.5 -16.5t-61.5 -10.5t-60 -6t-53 -2
q-91 0 -151.5 18.5t-94 58t-40 102.5t10.5 152l24 121q18 94 49.5 156t78 99t110 52t146.5 15q22 0 47 -1t49.5 -4t47 -7.5t40.5 -11.5zM422 806q-31 0 -53.5 10.5t-36.5 29t-20.5 43.5t-4.5 55h69q-2 -29 10 -47.5t44 -18.5t50 18.5t26 47.5h74q-6 -28 -18 -53t-31 -44
t-46 -30t-63 -11z" />
    <glyph glyph-name="gbreve" unicode="&#x11f;" horiz-adv-x="594" 
d="M178 -6q-53 0 -87 17t-53 46t-23 67.5t5 82.5l27 139q23 118 87.5 168t163.5 50q19 0 41 -3t43 -9t39.5 -15.5t32.5 -21.5l15 37h89l-113 -580q-10 -51 -28 -88t-49 -60.5t-77.5 -35t-112.5 -11.5q-17 0 -36 1t-38 3.5t-36 5t-30 5.5l17 85q27 -7 61 -10.5t60 -3.5
q42 0 71.5 5.5t49.5 19t32 36.5t18 58l10 54q-39 -20 -85 -31t-94 -11zM374 124l61 311q-17 19 -54.5 30t-82.5 11q-25 0 -48.5 -6.5t-43.5 -22t-35 -42.5t-23 -69l-24 -122q-14 -67 3 -99t77 -32q43 0 85.5 11t84.5 30zM324 606q-31 0 -53.5 10.5t-36.5 29t-20.5 43.5
t-4.5 55h69q-2 -29 10 -47.5t44 -18.5t50 18.5t26 47.5h74q-6 -28 -18 -53t-31 -44t-46 -30t-63 -11z" />
    <glyph glyph-name="Gdotaccent" unicode="&#x120;" horiz-adv-x="671" 
d="M611 648q-15 5 -35 8.5t-43 6t-46 4t-44 1.5q-80 0 -129.5 -17.5t-79 -48t-44 -71.5t-23.5 -87l-26 -133q-11 -51 -12.5 -93.5t16.5 -72.5t62.5 -46.5t125.5 -16.5q29 0 61.5 3t60.5 11l45 221h-151l17 91h252l-75 -385q-26 -10 -56.5 -16.5t-61.5 -10.5t-60 -6t-53 -2
q-91 0 -151.5 18.5t-94 58t-40 102.5t10.5 152l24 121q18 94 49.5 156t78 99t110 52t146.5 15q22 0 47 -1t49.5 -4t47 -7.5t40.5 -11.5zM400 918h96l-20 -106h-96z" />
    <glyph glyph-name="gdotaccent" unicode="&#x121;" horiz-adv-x="594" 
d="M178 -6q-53 0 -87 17t-53 46t-23 67.5t5 82.5l27 139q23 118 87.5 168t163.5 50q19 0 41 -3t43 -9t39.5 -15.5t32.5 -21.5l15 37h89l-113 -580q-10 -51 -28 -88t-49 -60.5t-77.5 -35t-112.5 -11.5q-17 0 -36 1t-38 3.5t-36 5t-30 5.5l17 85q27 -7 61 -10.5t60 -3.5
q42 0 71.5 5.5t49.5 19t32 36.5t18 58l10 54q-39 -20 -85 -31t-94 -11zM374 124l61 311q-17 19 -54.5 30t-82.5 11q-25 0 -48.5 -6.5t-43.5 -22t-35 -42.5t-23 -69l-24 -122q-14 -67 3 -99t77 -32q43 0 85.5 11t84.5 30zM296 718h96l-20 -106h-96z" />
    <glyph glyph-name="uni0122" unicode="&#x122;" horiz-adv-x="671" 
d="M611 648q-15 5 -35 8.5t-43 6t-46 4t-44 1.5q-80 0 -129.5 -17.5t-79 -48t-44 -71.5t-23.5 -87l-26 -133q-11 -51 -12.5 -93.5t16.5 -72.5t62.5 -46.5t125.5 -16.5q29 0 61.5 3t60.5 11l45 221h-151l17 91h252l-75 -385q-26 -10 -56.5 -16.5t-61.5 -10.5t-60 -6t-53 -2
q-91 0 -151.5 18.5t-94 58t-40 102.5t10.5 152l24 121q18 94 49.5 156t78 99t110 52t146.5 15q22 0 47 -1t49.5 -4t47 -7.5t40.5 -11.5zM268 -56h116l-96 -177h-92z" />
    <glyph glyph-name="uni0123" unicode="&#x123;" horiz-adv-x="594" 
d="M178 -6q-53 0 -87 17t-53 46t-23 67.5t5 82.5l27 139q23 118 87.5 168t163.5 50q19 0 41 -3t43 -9t39.5 -15.5t32.5 -21.5l15 37h89l-113 -580q-10 -51 -28 -88t-49 -60.5t-77.5 -35t-112.5 -11.5q-17 0 -36 1t-38 3.5t-36 5t-30 5.5l17 85q27 -7 61 -10.5t60 -3.5
q42 0 71.5 5.5t49.5 19t32 36.5t18 58l10 54q-39 -20 -85 -31t-94 -11zM374 124l61 311q-17 19 -54.5 30t-82.5 11q-25 0 -48.5 -6.5t-43.5 -22t-35 -42.5t-23 -69l-24 -122q-14 -67 3 -99t77 -32q43 0 85.5 11t84.5 30zM379 606h-116l96 177h92z" />
    <glyph glyph-name="Hcircumflex" unicode="&#x124;" horiz-adv-x="714" 
d="M709 750l-145 -750h-102l66 341h-352l-66 -341h-102l145 750h102l-61 -313h352l61 313h102zM427 954h87l68 -148h-75l-45 80l-78 -80h-83z" />
    <glyph glyph-name="hcircumflex" unicode="&#x125;" horiz-adv-x="585" 
d="M444 0h-100l72 373q10 49 0.5 75t-58.5 26q-35 0 -80 -11.5t-93 -36.5l-82 -426h-100l145 744l105 30l-51 -263q45 26 92 39.5t85 13.5q90 0 123 -46.5t18 -123.5zM385 954h87l68 -148h-75l-45 80l-78 -80h-83z" />
    <glyph glyph-name="Hbar" unicode="&#x126;" horiz-adv-x="717" 
d="M49 595h76l30 155h103l-30 -155h351l30 155h103l-30 -155h78l-15 -81h-79l-99 -514h-103l57 301h-351l-57 -301h-103l99 514h-76zM541 397l22 117h-351l-22 -117h351z" />
    <glyph glyph-name="hbar" unicode="&#x127;" horiz-adv-x="586" 
d="M444 0h-100l70 361q10 49 0.5 75t-58.5 26q-35 0 -80.5 -11.5t-93.5 -36.5l-79 -414h-100l116 598h-71l16 81h71l13 65l105 30l-19 -95h142l-16 -81h-141l-19 -99q45 26 92 39.5t85 13.5q90 0 123.5 -46.5t18.5 -123.5z" />
    <glyph glyph-name="Itilde" unicode="&#x128;" horiz-adv-x="257" 
d="M107 0h-102l145 750h102zM275 808q-21 0 -34.5 9t-24 19.5l-19.5 19.5t-21 9q-17 0 -29 -18.5t-18 -36.5h-76q8 22 18.5 45.5t25 42t34.5 30.5t46 12q21 0 35 -9t25 -19.5t20.5 -19.5t21.5 -9q20 0 30 17.5t15 39.5h76q-6 -21 -16 -44.5t-25 -43t-35.5 -32t-48.5 -12.5z
" />
    <glyph glyph-name="itilde" unicode="&#x129;" horiz-adv-x="260" 
d="M103 0h-100l107 552h100zM235 608q-21 0 -34.5 9t-24 19.5l-19.5 19.5t-21 9q-17 0 -29 -18.5t-18 -36.5h-76q8 22 18.5 45.5t25 42t34.5 30.5t46 12q21 0 35 -9t25 -19.5t20.5 -19.5t21.5 -9q20 0 30 17.5t15 39.5h76q-6 -21 -16 -44.5t-25 -43t-35.5 -32t-48.5 -12.5z
" />
    <glyph glyph-name="Imacron" unicode="&#x12a;" horiz-adv-x="257" 
d="M107 0h-102l145 750h102zM93 913h284l-16 -80h-284z" />
    <glyph glyph-name="imacron" unicode="&#x12b;" horiz-adv-x="254" 
d="M103 0h-100l107 552h100zM50 720h284l-16 -80h-284z" />
    <glyph glyph-name="Ibreve" unicode="&#x12c;" horiz-adv-x="257" 
d="M107 0h-102l145 750h102zM207 806q-31 0 -53.5 10.5t-36.5 29t-20.5 43.5t-4.5 55h69q-2 -29 10 -47.5t44 -18.5t50 18.5t26 47.5h74q-6 -28 -18 -53t-31 -44t-46 -30t-63 -11z" />
    <glyph glyph-name="ibreve" unicode="&#x12d;" horiz-adv-x="250" 
d="M103 0h-100l107 552h100zM172 606q-31 0 -53.5 10.5t-36.5 29t-20.5 43.5t-4.5 55h69q-2 -29 10 -47.5t44 -18.5t50 18.5t26 47.5h74q-6 -28 -18 -53t-31 -44t-46 -30t-63 -11z" />
    <glyph glyph-name="Iogonek" unicode="&#x12e;" horiz-adv-x="259" 
d="M17 -223q-65 0 -96.5 28.5t-23.5 70.5l2 10q3 18 14 34.5t26 31t32.5 26t34.5 18.5l146 754h102l-145 -750q-44 -21 -73.5 -50t-34.5 -52l-2 -10q-4 -20 9 -28t39 -8q15 0 30 2t26 5l-15 -71q-14 -4 -29 -7.5t-42 -3.5z" />
    <glyph glyph-name="iogonek" unicode="&#x12f;" horiz-adv-x="245" 
d="M7 -223q-65 0 -96.5 28.5t-23.5 70.5l2 10q3 18 14.5 35t26.5 31.5t33 25.5t35 18l108 556h100l-107 -552q-44 -21 -73.5 -50t-34.5 -52l-2 -10q-4 -20 9 -28t39 -8q15 0 30 2t26 5l-15 -71q-14 -4 -29 -7.5t-42 -3.5zM226 655h-100l21 111h100z" />
    <glyph glyph-name="Idotaccent" unicode="&#x130;" horiz-adv-x="257" 
d="M107 0h-102l145 750h102zM187 918h96l-20 -106h-96z" />
    <glyph glyph-name="dotlessi" unicode="&#x131;" horiz-adv-x="245" 
d="M98 0h-100l107 552h100z" />
    <glyph glyph-name="IJ" unicode="&#x132;" horiz-adv-x="659" 
d="M107 0h-102l145 750h102zM659 750l-111 -571q-10 -51 -25 -87t-40.5 -59t-64.5 -34t-96 -11q-14 0 -30.5 1.5t-33.5 4t-31.5 5.5t-23.5 7l19 94q29 -10 57 -13t50 -3q50 0 78 23.5t40 85.5l109 557h103z" />
    <glyph glyph-name="ij" unicode="&#x133;" horiz-adv-x="519" 
d="M103 0h-100l107 552h100zM230 655h-100l21 111h100zM483 552l-121 -620q-8 -43 -19.5 -72.5t-30 -48t-45 -26.5t-64.5 -8q-20 0 -47 2t-51 8l17 85q34 -6 75 -6q34 0 46.5 16t20.5 58l119 612h100zM503 655h-100l21 111h100z" />
    <glyph glyph-name="Jcircumflex" unicode="&#x134;" horiz-adv-x="406" 
d="M337 954h87l68 -148h-75l-45 80l-78 -80h-83zM397 750l-111 -571q-10 -51 -25 -87t-40.5 -59t-64.5 -34t-96 -11q-14 0 -30.5 1.5t-33.5 4t-31.5 5.5t-23.5 7l19 94q29 -10 57 -13t50 -3q50 0 78 23.5t40 85.5l109 557h103z" />
    <glyph glyph-name="jcircumflex" unicode="&#x135;" horiz-adv-x="268" 
d="M220 552l-121 -620q-8 -43 -19.5 -72.5t-30 -48t-45 -26.5t-64.5 -8q-20 0 -47 2t-51 8l17 85q34 -6 75 -6q34 0 46.5 16t20.5 58l119 612h100zM161 754h87l68 -148h-75l-45 80l-78 -80h-83z" />
    <glyph glyph-name="uni0136" unicode="&#x136;" horiz-adv-x="639" 
d="M349 382l213 -382h-117l-180 331h-94l-64 -331h-102l145 750h102l-63 -325h84l282 325h124zM232 -56h116l-96 -177h-92z" />
    <glyph glyph-name="uni0137" unicode="&#x137;" horiz-adv-x="527" 
d="M252 774l-84 -427h58l206 205h123l-258 -251l155 -301h-109l-127 257h-65l-49 -257h-99l145 744zM166 -56h116l-96 -177h-92z" />
    <glyph glyph-name="kgreenlandic" unicode="&#x138;" horiz-adv-x="522" 
d="M209 552l-44 -225h58l209 225h123l-259 -265l153 -287h-110l-120 237h-72l-45 -237h-99l107 552h99z" />
    <glyph glyph-name="Lacute" unicode="&#x139;" horiz-adv-x="566" 
d="M252 750l-127 -652h356l-18 -98h-458l145 750h102zM270 940h132l-136 -134h-108z" />
    <glyph glyph-name="lacute" unicode="&#x13a;" horiz-adv-x="256" 
d="M103 0h-100l145 744l105 30zM266 940h132l-136 -134h-108z" />
    <glyph glyph-name="uni013B" unicode="&#x13b;" horiz-adv-x="566" 
d="M252 750l-127 -652h356l-18 -98h-458l145 750h102zM210 -56h116l-96 -177h-92z" />
    <glyph glyph-name="uni013C" unicode="&#x13c;" horiz-adv-x="256" 
d="M103 0h-100l145 744l105 30zM-10 -56h116l-96 -177h-92z" />
    <glyph glyph-name="Lcaron" unicode="&#x13d;" horiz-adv-x="566" 
d="M421 750l-66 -177h-76l44 177h98zM252 750l-127 -652h356l-18 -98h-458l145 750h102z" />
    <glyph glyph-name="lcaron" unicode="&#x13e;" horiz-adv-x="292" 
d="M410 761l-63 -167h-76l41 167h98zM103 0h-100l145 744l105 30z" />
    <glyph glyph-name="Ldot" unicode="&#x13f;" horiz-adv-x="566" 
d="M252 750l-127 -652h356l-18 -98h-458l145 750h102zM402 470h96l-20 -106h-96z" />
    <glyph glyph-name="ldot" unicode="&#x140;" horiz-adv-x="361" 
d="M103 0h-100l145 744l105 30zM270 450h96l-20 -106h-96z" />
    <glyph glyph-name="Lslash" unicode="&#x141;" horiz-adv-x="576" 
d="M262 750l-63 -322l224 97l-18 -92l-224 -97l-46 -238h356l-18 -98h-458l55 288l-120 -52l18 92l120 52l72 370h102z" />
    <glyph glyph-name="lslash" unicode="&#x142;" horiz-adv-x="296" 
d="M123 0h-100l57 296l-107 -63l19 94l107 62l69 355l105 30l-62 -319l117 69l-18 -94l-117 -69z" />
    <glyph glyph-name="Nacute" unicode="&#x143;" horiz-adv-x="700" 
d="M550 0h-110l-186 498q-8 23 -16.5 50t-16.5 61l-117 -609h-99l145 750h110l185 -497q5 -13 9 -24.5t8 -24t8 -28t8 -36.5l118 610h99zM480 940h132l-136 -134h-108z" />
    <glyph glyph-name="nacute" unicode="&#x144;" 
d="M444 0h-100l72 373q10 49 0.5 75t-58.5 26q-36 0 -82 -12.5t-92 -38.5l-81 -423h-100l107 552h89l2 -43q43 25 88.5 40t89.5 15q45 0 75.5 -12t47.5 -34.5t21 -54t-3 -69.5zM392 740h132l-136 -134h-108z" />
    <glyph glyph-name="uni0145" unicode="&#x145;" horiz-adv-x="700" 
d="M550 0h-110l-186 498q-8 23 -16.5 50t-16.5 61l-117 -609h-99l145 750h110l185 -497q5 -13 9 -24.5t8 -24t8 -28t8 -36.5l118 610h99zM247 -56h116l-96 -177h-92z" />
    <glyph glyph-name="uni0146" unicode="&#x146;" 
d="M444 0h-100l72 373q10 49 0.5 75t-58.5 26q-36 0 -82 -12.5t-92 -38.5l-81 -423h-100l107 552h89l2 -43q43 25 88.5 40t89.5 15q45 0 75.5 -12t47.5 -34.5t21 -54t-3 -69.5zM167 -56h116l-96 -177h-92z" />
    <glyph glyph-name="Ncaron" unicode="&#x147;" horiz-adv-x="700" 
d="M550 0h-110l-186 498q-8 23 -16.5 50t-16.5 61l-117 -609h-99l145 750h110l185 -497q5 -13 9 -24.5t8 -24t8 -28t8 -36.5l118 610h99zM478 796h-87l-68 148h75l45 -80l77 80h84z" />
    <glyph glyph-name="ncaron" unicode="&#x148;" 
d="M444 0h-100l72 373q10 49 0.5 75t-58.5 26q-36 0 -82 -12.5t-92 -38.5l-81 -423h-100l107 552h89l2 -43q43 25 88.5 40t89.5 15q45 0 75.5 -12t47.5 -34.5t21 -54t-3 -69.5zM404 596h-87l-68 148h75l45 -80l77 80h84z" />
    <glyph glyph-name="napostrophe" unicode="&#x149;" 
d="M118 700l-79 -194h-70l56 194h93zM444 0h-100l72 373q10 49 0.5 75t-58.5 26q-36 0 -82 -12.5t-92 -38.5l-81 -423h-100l107 552h89l2 -43q43 25 88.5 40t89.5 15q45 0 75.5 -12t47.5 -34.5t21 -54t-3 -69.5z" />
    <glyph glyph-name="Eng" unicode="&#x14a;" horiz-adv-x="700" 
d="M536 -68q-8 -43 -19.5 -72.5t-30 -48t-45 -26.5t-64.5 -8q-20 0 -47 2t-51 8l17 85q34 -6 75 -6q34 0 47 16t21 58l8 41l-193 517q-8 23 -16.5 50t-16.5 61l-117 -609h-99l145 750h110l185 -497q5 -13 9 -24.5t8 -24t8 -28t8 -36.5l118 610h99z" />
    <glyph glyph-name="eng" unicode="&#x14b;" horiz-adv-x="583" 
d="M431 -68q-8 -43 -19.5 -72.5t-30 -48t-45 -26.5t-64.5 -8q-20 0 -47 2t-51 8l17 85q34 -6 75 -6q17 0 28 4t18 12.5t11.5 22.5t8.5 35l84 433q10 49 0.5 75t-58.5 26q-36 0 -82 -12.5t-92 -38.5l-81 -423h-100l107 552h89l2 -43q43 25 88.5 40t89.5 15q45 0 75.5 -12
t47.5 -34.5t21 -54t-3 -69.5z" />
    <glyph glyph-name="Omacron" unicode="&#x14c;" horiz-adv-x="729" 
d="M670 319q-32 -163 -125 -247t-245 -84q-76 0 -132.5 22.5t-90 66t-44 107t5.5 144.5l20 104q32 162 125 246t246 84q76 0 132 -22.5t89.5 -66t44 -106.5t-5.5 -144zM586 421q13 67 7.5 113.5t-27.5 75.5t-58.5 42.5t-85.5 13.5t-91 -13.5t-75.5 -42.5t-57.5 -75.5
t-37 -113.5l-18 -92q-13 -67 -7 -113.5t28 -76t59 -42.5t85 -13q49 0 90.5 13t75 42.5t57.5 76t37 113.5zM332 920h284l-16 -80h-284z" />
    <glyph glyph-name="omacron" unicode="&#x14d;" horiz-adv-x="580" 
d="M498 238q-23 -121 -92.5 -184.5t-183.5 -63.5q-113 0 -166.5 67.5t-30.5 188.5l14 70q23 121 92.5 184.5t182.5 63.5q114 0 167.5 -67.5t30.5 -188.5zM412 312q17 89 -12.5 127t-92.5 38t-107 -38t-61 -127l-14 -70q-17 -89 12.5 -127t91.5 -38q64 0 108 38t61 127z
M219 720h284l-16 -80h-284z" />
    <glyph glyph-name="Obreve" unicode="&#x14e;" horiz-adv-x="729" 
d="M670 319q-32 -163 -125 -247t-245 -84q-76 0 -132.5 22.5t-90 66t-44 107t5.5 144.5l20 104q32 162 125 246t246 84q76 0 132 -22.5t89.5 -66t44 -106.5t-5.5 -144zM586 421q13 67 7.5 113.5t-27.5 75.5t-58.5 42.5t-85.5 13.5t-91 -13.5t-75.5 -42.5t-57.5 -75.5
t-37 -113.5l-18 -92q-13 -67 -7 -113.5t28 -76t59 -42.5t85 -13q49 0 90.5 13t75 42.5t57.5 76t37 113.5zM446 806q-31 0 -53.5 10.5t-36.5 29t-20.5 43.5t-4.5 55h69q-2 -29 10 -47.5t44 -18.5t50 18.5t26 47.5h74q-6 -28 -18 -53t-31 -44t-46 -30t-63 -11z" />
    <glyph glyph-name="obreve" unicode="&#x14f;" horiz-adv-x="580" 
d="M498 238q-23 -121 -92.5 -184.5t-183.5 -63.5q-113 0 -166.5 67.5t-30.5 188.5l14 70q23 121 92.5 184.5t182.5 63.5q114 0 167.5 -67.5t30.5 -188.5zM412 312q17 89 -12.5 127t-92.5 38t-107 -38t-61 -127l-14 -70q-17 -89 12.5 -127t91.5 -38q64 0 108 38t61 127z
M332 606q-31 0 -53.5 10.5t-36.5 29t-20.5 43.5t-4.5 55h69q-2 -29 10 -47.5t44 -18.5t50 18.5t26 47.5h74q-6 -28 -18 -53t-31 -44t-46 -30t-63 -11z" />
    <glyph glyph-name="Ohungarumlaut" unicode="&#x150;" horiz-adv-x="729" 
d="M670 319q-32 -163 -125 -247t-245 -84q-76 0 -132.5 22.5t-90 66t-44 107t5.5 144.5l20 104q32 162 125 246t246 84q76 0 132 -22.5t89.5 -66t44 -106.5t-5.5 -144zM586 421q13 67 7.5 113.5t-27.5 75.5t-58.5 42.5t-85.5 13.5t-91 -13.5t-75.5 -42.5t-57.5 -75.5
t-37 -113.5l-18 -92q-13 -67 -7 -113.5t28 -76t59 -42.5t85 -13q49 0 90.5 13t75 42.5t57.5 76t37 113.5zM557 940h96l-95 -134h-75zM399 940h96l-96 -134h-75z" />
    <glyph glyph-name="ohungarumlaut" unicode="&#x151;" horiz-adv-x="580" 
d="M498 238q-23 -121 -92.5 -184.5t-183.5 -63.5q-113 0 -166.5 67.5t-30.5 188.5l14 70q23 121 92.5 184.5t182.5 63.5q114 0 167.5 -67.5t30.5 -188.5zM412 312q17 89 -12.5 127t-92.5 38t-107 -38t-61 -127l-14 -70q-17 -89 12.5 -127t91.5 -38q64 0 108 38t61 127z
M443 740h96l-95 -134h-75zM285 740h96l-96 -134h-75z" />
    <glyph glyph-name="OE" unicode="&#x152;" horiz-adv-x="997" 
d="M1016 750l-18 -95h-360l-43 -221h328l-18 -93h-328l-48 -246h373l-18 -95h-557q-94 0 -156 24t-96 70t-41 112t10 150l11 59q17 87 48 150.5t78 104.5t112 60.5t150 19.5h573zM436 655q-69 0 -117 -18t-80 -50t-51 -76t-29 -96l-15 -79q-10 -50 -9 -94t20.5 -76.5
t60.5 -51.5t111 -19h99l109 560h-99z" />
    <glyph glyph-name="oe" unicode="&#x153;" horiz-adv-x="928" 
d="M858 246h-360l-4 -22q-7 -33 -6 -60.5t14.5 -46.5t42 -29.5t77.5 -10.5q32 0 74 5t84 19l-17 -83q-37 -15 -76.5 -21.5t-74.5 -6.5q-77 0 -124 20.5t-69 62.5q-35 -41 -83.5 -62t-113.5 -21q-113 0 -166.5 67.5t-30.5 188.5l14 70q23 121 92.5 184.5t182.5 63.5
q65 0 108.5 -22.5t65.5 -64.5q35 46 84 66.5t107 20.5q54 0 95.5 -15t67 -47.5t32.5 -84.5t-7 -125zM412 312q17 89 -12.5 127t-92.5 38t-107 -38t-61 -127l-14 -70q-17 -89 12.5 -127t91.5 -38q64 0 108 38t61 127zM776 325l1 7q6 31 4 57.5t-13.5 46.5t-34.5 31.5
t-60 11.5q-35 0 -62 -11.5t-46.5 -31.5t-31.5 -46.5t-18 -57.5l-1 -7h262z" />
    <glyph glyph-name="Racute" unicode="&#x154;" horiz-adv-x="654" 
d="M150 750h258q58 0 104 -8.5t75.5 -31.5t40 -64t-1.5 -105l-7 -38q-8 -42 -20.5 -73.5t-31.5 -54t-46 -37t-64 -21.5l93 -317h-106l-85 306h-193l-59 -306h-102zM234 657l-50 -260h144q49 0 82 5t54.5 17t33.5 32.5t18 52.5l10 54q5 27 2.5 45.5t-16 30.5t-40.5 17.5
t-70 5.5h-168zM447 940h132l-136 -134h-108z" />
    <glyph glyph-name="racute" unicode="&#x155;" horiz-adv-x="385" 
d="M389 564l-20 -101q-46 -3 -95.5 -17t-93.5 -44l-77 -402h-100l107 552h89l-1 -56q13 10 33 22t44.5 22.5t53 17t60.5 6.5zM231 740h132l-136 -134h-108z" />
    <glyph glyph-name="uni0156" unicode="&#x156;" horiz-adv-x="654" 
d="M150 750h258q58 0 104 -8.5t75.5 -31.5t40 -64t-1.5 -105l-7 -38q-8 -42 -20.5 -73.5t-31.5 -54t-46 -37t-64 -21.5l93 -317h-106l-85 306h-193l-59 -306h-102zM234 657l-50 -260h144q49 0 82 5t54.5 17t33.5 32.5t18 52.5l10 54q5 27 2.5 45.5t-16 30.5t-40.5 17.5
t-70 5.5h-168zM226 -56h116l-96 -177h-92z" />
    <glyph glyph-name="uni0157" unicode="&#x157;" horiz-adv-x="385" 
d="M389 564l-20 -101q-46 -3 -95.5 -17t-93.5 -44l-77 -402h-100l107 552h89l-1 -56q13 10 33 22t44.5 22.5t53 17t60.5 6.5zM-11 -56h116l-96 -177h-92z" />
    <glyph glyph-name="Rcaron" unicode="&#x158;" horiz-adv-x="654" 
d="M150 750h258q58 0 104 -8.5t75.5 -31.5t40 -64t-1.5 -105l-7 -38q-8 -42 -20.5 -73.5t-31.5 -54t-46 -37t-64 -21.5l93 -317h-106l-85 306h-193l-59 -306h-102zM234 657l-50 -260h144q49 0 82 5t54.5 17t33.5 32.5t18 52.5l10 54q5 27 2.5 45.5t-16 30.5t-40.5 17.5
t-70 5.5h-168zM447 796h-87l-68 148h75l45 -80l77 80h84z" />
    <glyph glyph-name="rcaron" unicode="&#x159;" horiz-adv-x="385" 
d="M389 564l-20 -101q-46 -3 -95.5 -17t-93.5 -44l-77 -402h-100l107 552h89l-1 -56q13 10 33 22t44.5 22.5t53 17t60.5 6.5zM308 596h-87l-68 148h75l45 -80l77 80h84z" />
    <glyph glyph-name="Sacute" unicode="&#x15a;" horiz-adv-x="585" 
d="M507 191q-9 -46 -26.5 -83t-49.5 -63.5t-82 -40.5t-125 -14q-61 0 -122.5 8t-121.5 31l18 96q69 -26 130.5 -33.5t99.5 -7.5q47 0 78.5 8t52 23t31 36.5t15.5 47.5q5 25 5 44t-10 33.5t-31.5 26t-60.5 22.5l-85 23q-80 22 -115 74.5t-17 144.5q10 51 29.5 88t52.5 60
t80.5 34t112.5 11q27 0 56 -1.5t56.5 -5t51.5 -8t40 -10.5l-18 -88q-39 11 -86.5 15.5t-87.5 4.5q-52 0 -85.5 -6.5t-54.5 -20t-31 -35t-16 -52.5q-5 -25 -3.5 -43t10.5 -32t27.5 -24t47.5 -18l83 -23q59 -16 93 -38t49.5 -49.5t16 -61t-7.5 -73.5zM428 940h132l-136 -134
h-108z" />
    <glyph glyph-name="sacute" unicode="&#x15b;" horiz-adv-x="450" 
d="M378 145q-7 -35 -19.5 -63.5t-37 -48.5t-63.5 -31.5t-97 -11.5q-20 0 -44 2t-49.5 5.5t-50.5 10t-45 15.5l18 87q49 -21 95 -27.5t77 -6.5q61 0 86.5 18t32.5 54q3 18 4 31t-5.5 23t-22.5 18t-47 16l-38 10q-80 21 -106.5 60.5t-13.5 106.5q7 38 22 66.5t40 47t62 28
t90 9.5q43 0 84.5 -5t66.5 -15l-17 -83q-27 9 -62.5 14t-64.5 5q-65 0 -92 -16t-34 -56q-4 -19 -3 -32t8.5 -22t23 -15.5t40.5 -13.5l38 -10q44 -12 71.5 -26.5t41.5 -35t16 -47t-5 -61.5zM309 740h132l-136 -134h-108z" />
    <glyph glyph-name="Scircumflex" unicode="&#x15c;" horiz-adv-x="585" 
d="M507 191q-9 -46 -26.5 -83t-49.5 -63.5t-82 -40.5t-125 -14q-61 0 -122.5 8t-121.5 31l18 96q69 -26 130.5 -33.5t99.5 -7.5q47 0 78.5 8t52 23t31 36.5t15.5 47.5q5 25 5 44t-10 33.5t-31.5 26t-60.5 22.5l-85 23q-80 22 -115 74.5t-17 144.5q10 51 29.5 88t52.5 60
t80.5 34t112.5 11q27 0 56 -1.5t56.5 -5t51.5 -8t40 -10.5l-18 -88q-39 11 -86.5 15.5t-87.5 4.5q-52 0 -85.5 -6.5t-54.5 -20t-31 -35t-16 -52.5q-5 -25 -3.5 -43t10.5 -32t27.5 -24t47.5 -18l83 -23q59 -16 93 -38t49.5 -49.5t16 -61t-7.5 -73.5zM368 954h87l68 -148h-75
l-45 80l-78 -80h-83z" />
    <glyph glyph-name="scircumflex" unicode="&#x15d;" horiz-adv-x="450" 
d="M378 145q-7 -35 -19.5 -63.5t-37 -48.5t-63.5 -31.5t-97 -11.5q-20 0 -44 2t-49.5 5.5t-50.5 10t-45 15.5l18 87q49 -21 95 -27.5t77 -6.5q61 0 86.5 18t32.5 54q3 18 4 31t-5.5 23t-22.5 18t-47 16l-38 10q-80 21 -106.5 60.5t-13.5 106.5q7 38 22 66.5t40 47t62 28
t90 9.5q43 0 84.5 -5t66.5 -15l-17 -83q-27 9 -62.5 14t-64.5 5q-65 0 -92 -16t-34 -56q-4 -19 -3 -32t8.5 -22t23 -15.5t40.5 -13.5l38 -10q44 -12 71.5 -26.5t41.5 -35t16 -47t-5 -61.5zM256 754h87l68 -148h-75l-45 80l-78 -80h-83z" />
    <glyph glyph-name="Scedilla" unicode="&#x15e;" horiz-adv-x="585" 
d="M172 -263q-20 0 -43.5 1.5t-43.5 5.5l14 70q14 -2 28.5 -3t33.5 -1q43 0 58.5 12t18.5 26l2 10q4 20 -10.5 29t-53.5 9h-29l19 96q-48 3 -94 11.5t-92 25.5l18 96q69 -26 130.5 -33.5t99.5 -7.5q47 0 78.5 8t52 23t31 36.5t15.5 47.5q5 25 5 44t-10 33.5t-31.5 26
t-60.5 22.5l-85 23q-80 22 -115 74.5t-17 144.5q10 51 29.5 88t52.5 60t80.5 34t112.5 11q27 0 56 -1.5t56.5 -5t51.5 -8t40 -10.5l-18 -88q-39 11 -86.5 15.5t-87.5 4.5q-52 0 -85.5 -6.5t-54.5 -20t-31 -35t-16 -52.5q-5 -25 -3.5 -43t10.5 -32t27.5 -24t47.5 -18l83 -23
q59 -16 93 -38t49.5 -49.5t16 -61t-7.5 -73.5q-9 -44 -25 -79.5t-45 -61.5t-73.5 -41t-110.5 -18l-9 -45q52 -4 75 -28.5t15 -65.5l-2 -10q-6 -31 -20 -51t-34.5 -32t-47.5 -17t-58 -5z" />
    <glyph glyph-name="scedilla" unicode="&#x15f;" horiz-adv-x="450" 
d="M105 -263q-20 0 -43.5 1.5t-43.5 5.5l14 70q14 -2 28.5 -3t33.5 -1q43 0 58.5 12t18.5 26l2 10q4 20 -10.5 29t-53.5 9h-29l19 98q-32 3 -66.5 10t-60.5 19l18 87q49 -21 95 -27.5t77 -6.5q61 0 86.5 18t32.5 54q3 18 4 31t-5.5 23t-22.5 18t-47 16l-38 10
q-80 21 -106.5 60.5t-13.5 106.5q7 38 22 66.5t40 47t62 28t90 9.5q43 0 84.5 -5t66.5 -15l-17 -83q-27 9 -62.5 14t-64.5 5q-65 0 -92 -16t-34 -56q-4 -19 -3 -32t8.5 -22t23 -15.5t40.5 -13.5l38 -10q44 -12 71.5 -26.5t41.5 -35t16 -47t-5 -61.5q-6 -33 -18 -60
t-34 -47.5t-55.5 -32.5t-84.5 -14l-9 -45q52 -4 75 -28.5t15 -65.5l-2 -10q-6 -31 -20 -51t-34.5 -32t-47.5 -17t-58 -5z" />
    <glyph glyph-name="Scaron" unicode="&#x160;" horiz-adv-x="585" 
d="M507 191q-9 -46 -26.5 -83t-49.5 -63.5t-82 -40.5t-125 -14q-61 0 -122.5 8t-121.5 31l18 96q69 -26 130.5 -33.5t99.5 -7.5q47 0 78.5 8t52 23t31 36.5t15.5 47.5q5 25 5 44t-10 33.5t-31.5 26t-60.5 22.5l-85 23q-80 22 -115 74.5t-17 144.5q10 51 29.5 88t52.5 60
t80.5 34t112.5 11q27 0 56 -1.5t56.5 -5t51.5 -8t40 -10.5l-18 -88q-39 11 -86.5 15.5t-87.5 4.5q-52 0 -85.5 -6.5t-54.5 -20t-31 -35t-16 -52.5q-5 -25 -3.5 -43t10.5 -32t27.5 -24t47.5 -18l83 -23q59 -16 93 -38t49.5 -49.5t16 -61t-7.5 -73.5zM420 796h-87l-68 148h75
l45 -80l77 80h84z" />
    <glyph glyph-name="scaron" unicode="&#x161;" horiz-adv-x="450" 
d="M378 145q-7 -35 -19.5 -63.5t-37 -48.5t-63.5 -31.5t-97 -11.5q-20 0 -44 2t-49.5 5.5t-50.5 10t-45 15.5l18 87q49 -21 95 -27.5t77 -6.5q61 0 86.5 18t32.5 54q3 18 4 31t-5.5 23t-22.5 18t-47 16l-38 10q-80 21 -106.5 60.5t-13.5 106.5q7 38 22 66.5t40 47t62 28
t90 9.5q43 0 84.5 -5t66.5 -15l-17 -83q-27 9 -62.5 14t-64.5 5q-65 0 -92 -16t-34 -56q-4 -19 -3 -32t8.5 -22t23 -15.5t40.5 -13.5l38 -10q44 -12 71.5 -26.5t41.5 -35t16 -47t-5 -61.5zM311 596h-87l-68 148h75l45 -80l77 80h84z" />
    <glyph glyph-name="uni0162" unicode="&#x162;" horiz-adv-x="602" 
d="M189 -263q-20 0 -43.5 1.5t-43.5 5.5l14 70q14 -2 28.5 -3t33.5 -1q43 0 58.5 12t18.5 26l2 10q4 20 -10.5 29t-53.5 9h-29l21 104h-8l127 654h-231l18 96h565l-18 -96h-231l-127 -654h-8l-11 -54q52 -4 75 -28.5t15 -65.5l-2 -10q-6 -31 -20 -51t-34.5 -32t-47.5 -17
t-58 -5z" />
    <glyph glyph-name="uni0163" unicode="&#x163;" horiz-adv-x="399" 
d="M95 -263q-20 0 -43.5 1.5t-43.5 5.5l14 70q14 -2 28.5 -3t33.5 -1q43 0 58.5 12t18.5 26l2 10q4 20 -10.5 29t-53.5 9h-29l24 122q-19 18 -26 45.5t1 65.5l65 336h-88l18 87h88l22 114l105 30l-27 -144h143l-18 -87h-143l-60 -311q-8 -39 -0.5 -56.5t39.5 -17.5
q23 0 48 4t45 12l-17 -83q-21 -13 -51.5 -18t-54.5 -5h-7l-9 -44q52 -4 75 -28.5t15 -65.5l-2 -10q-6 -31 -20 -51t-34.5 -32t-47.5 -17t-58 -5z" />
    <glyph glyph-name="Tcaron" unicode="&#x164;" horiz-adv-x="602" 
d="M73 654l18 96h565l-18 -96h-231l-127 -654h-103l127 654h-231zM432 796h-87l-68 148h75l45 -80l77 80h84z" />
    <glyph glyph-name="tcaron" unicode="&#x165;" horiz-adv-x="399" 
d="M440 761l-63 -167h-75l40 167h98zM377 465h-143l-60 -311q-8 -39 -0.5 -56.5t39.5 -17.5q23 0 48 4t45 12l-17 -83q-21 -13 -51.5 -18t-54.5 -5q-66 0 -96.5 36.5t-17.5 102.5l65 336h-88l18 87h88l22 114l105 30l-27 -144h143z" />
    <glyph glyph-name="Tbar" unicode="&#x166;" horiz-adv-x="602" 
d="M87 430h173l44 224h-231l18 96h565l-18 -96h-231l-44 -224h176l-16 -81h-175l-68 -349h-103l68 349h-174z" />
    <glyph glyph-name="tbar" unicode="&#x167;" horiz-adv-x="399" 
d="M25 353h87l22 112h-88l18 87h88l22 114l105 30l-27 -144h143l-18 -87h-143l-22 -112h144l-16 -81h-143l-23 -118q-8 -39 -0.5 -56.5t39.5 -17.5q23 0 48 4t45 12l-17 -83q-21 -13 -51.5 -18t-54.5 -5q-66 0 -96.5 36.5t-17.5 102.5l27 143h-87z" />
    <glyph glyph-name="Utilde" unicode="&#x168;" horiz-adv-x="716" 
d="M244 750l-90 -466q-11 -56 -7.5 -94t21.5 -61t51 -32.5t81 -9.5q50 0 87.5 9.5t64.5 32.5t45.5 61t29.5 94l90 466h104l-92 -477q-14 -75 -39 -128.5t-65.5 -88.5t-97.5 -51.5t-136 -16.5q-299 0 -240 302l89 460h104zM503 808q-21 0 -34.5 9t-24 19.5l-19.5 19.5t-21 9
q-17 0 -29 -18.5t-18 -36.5h-76q8 22 18.5 45.5t25 42t34.5 30.5t46 12q21 0 35 -9t25 -19.5t20.5 -19.5t21.5 -9q20 0 30 17.5t15 39.5h76q-6 -21 -16 -44.5t-25 -43t-35.5 -32t-48.5 -12.5z" />
    <glyph glyph-name="utilde" unicode="&#x169;" horiz-adv-x="577" 
d="M105 552h100l-73 -372q-5 -24 -6 -43t4.5 -32t19 -19.5t38.5 -6.5q35 0 79.5 13.5t91.5 40.5l82 419h100l-107 -552h-89l-2 45q-42 -24 -83.5 -39.5t-91.5 -15.5q-45 0 -75.5 12.5t-47 35.5t-20.5 55t4 71zM397 608q-21 0 -34.5 9t-24 19.5l-19.5 19.5t-21 9
q-17 0 -29 -18.5t-18 -36.5h-76q8 22 18.5 45.5t25 42t34.5 30.5t46 12q21 0 35 -9t25 -19.5t20.5 -19.5t21.5 -9q20 0 30 17.5t15 39.5h76q-6 -21 -16 -44.5t-25 -43t-35.5 -32t-48.5 -12.5z" />
    <glyph glyph-name="Umacron" unicode="&#x16a;" horiz-adv-x="716" 
d="M244 750l-90 -466q-11 -56 -7.5 -94t21.5 -61t51 -32.5t81 -9.5q50 0 87.5 9.5t64.5 32.5t45.5 61t29.5 94l90 466h104l-92 -477q-14 -75 -39 -128.5t-65.5 -88.5t-97.5 -51.5t-136 -16.5q-299 0 -240 302l89 460h104zM322 920h284l-16 -80h-284z" />
    <glyph glyph-name="umacron" unicode="&#x16b;" horiz-adv-x="577" 
d="M105 552h100l-73 -372q-5 -24 -6 -43t4.5 -32t19 -19.5t38.5 -6.5q35 0 79.5 13.5t91.5 40.5l82 419h100l-107 -552h-89l-2 45q-42 -24 -83.5 -39.5t-91.5 -15.5q-45 0 -75.5 12.5t-47 35.5t-20.5 55t4 71zM211 720h284l-16 -80h-284z" />
    <glyph glyph-name="Ubreve" unicode="&#x16c;" horiz-adv-x="716" 
d="M244 750l-90 -466q-11 -56 -7.5 -94t21.5 -61t51 -32.5t81 -9.5q50 0 87.5 9.5t64.5 32.5t45.5 61t29.5 94l90 466h104l-92 -477q-14 -75 -39 -128.5t-65.5 -88.5t-97.5 -51.5t-136 -16.5q-299 0 -240 302l89 460h104zM434 806q-31 0 -53.5 10.5t-36.5 29t-20.5 43.5
t-4.5 55h69q-2 -29 10 -47.5t44 -18.5t50 18.5t26 47.5h74q-6 -28 -18 -53t-31 -44t-46 -30t-63 -11z" />
    <glyph glyph-name="ubreve" unicode="&#x16d;" horiz-adv-x="577" 
d="M105 552h100l-73 -372q-5 -24 -6 -43t4.5 -32t19 -19.5t38.5 -6.5q35 0 79.5 13.5t91.5 40.5l82 419h100l-107 -552h-89l-2 45q-42 -24 -83.5 -39.5t-91.5 -15.5q-45 0 -75.5 12.5t-47 35.5t-20.5 55t4 71zM331 606q-31 0 -53.5 10.5t-36.5 29t-20.5 43.5t-4.5 55h69
q-2 -29 10 -47.5t44 -18.5t50 18.5t26 47.5h74q-6 -28 -18 -53t-31 -44t-46 -30t-63 -11z" />
    <glyph glyph-name="Uring" unicode="&#x16e;" horiz-adv-x="716" 
d="M244 750l-90 -466q-11 -56 -7.5 -94t21.5 -61t51 -32.5t81 -9.5q50 0 87.5 9.5t64.5 32.5t45.5 61t29.5 94l90 466h104l-92 -477q-14 -75 -39 -128.5t-65.5 -88.5t-97.5 -51.5t-136 -16.5q-299 0 -240 302l89 460h104zM446 843q23 0 41 16.5t18 45.5q0 17 -11 28t-30 11
q-23 0 -40.5 -18t-17.5 -45q0 -18 11 -28t29 -10zM439 789q-40 0 -65.5 26t-25.5 62q0 25 10 47.5t27 38.5t39.5 25.5t47.5 9.5q41 0 66 -25.5t25 -61.5q0 -25 -9.5 -47t-26.5 -38.5t-39.5 -26.5t-48.5 -10z" />
    <glyph glyph-name="uring" unicode="&#x16f;" horiz-adv-x="577" 
d="M105 552h100l-73 -372q-5 -24 -6 -43t4.5 -32t19 -19.5t38.5 -6.5q35 0 79.5 13.5t91.5 40.5l82 419h100l-107 -552h-89l-2 45q-42 -24 -83.5 -39.5t-91.5 -15.5q-45 0 -75.5 12.5t-47 35.5t-20.5 55t4 71zM335 643q23 0 41 16.5t18 45.5q0 17 -11 28t-30 11
q-23 0 -40.5 -18t-17.5 -45q0 -18 11 -28t29 -10zM328 589q-40 0 -65.5 26t-25.5 62q0 25 10 47.5t27 38.5t39.5 25.5t47.5 9.5q41 0 66 -25.5t25 -61.5q0 -25 -9.5 -47t-26.5 -38.5t-39.5 -26.5t-48.5 -10z" />
    <glyph glyph-name="Uhungarumlaut" unicode="&#x170;" horiz-adv-x="716" 
d="M244 750l-90 -466q-11 -56 -7.5 -94t21.5 -61t51 -32.5t81 -9.5q50 0 87.5 9.5t64.5 32.5t45.5 61t29.5 94l90 466h104l-92 -477q-14 -75 -39 -128.5t-65.5 -88.5t-97.5 -51.5t-136 -16.5q-299 0 -240 302l89 460h104zM544 940h96l-95 -134h-75zM386 940h96l-96 -134h-75
z" />
    <glyph glyph-name="uhungarumlaut" unicode="&#x171;" horiz-adv-x="577" 
d="M105 552h100l-73 -372q-5 -24 -6 -43t4.5 -32t19 -19.5t38.5 -6.5q35 0 79.5 13.5t91.5 40.5l82 419h100l-107 -552h-89l-2 45q-42 -24 -83.5 -39.5t-91.5 -15.5q-45 0 -75.5 12.5t-47 35.5t-20.5 55t4 71zM443 740h96l-95 -134h-75zM285 740h96l-96 -134h-75z" />
    <glyph glyph-name="Uogonek" unicode="&#x172;" horiz-adv-x="716" 
d="M317 -223q-65 0 -96.5 28.5t-23.5 70.5l2 10q6 32 33 59t58 43q-298 0 -239 302l89 460h104l-90 -466q-11 -56 -7.5 -94t21.5 -61t51 -32.5t81 -9.5q50 0 87.5 9.5t64.5 32.5t45.5 61t29.5 94l90 466h104l-92 -477q-11 -59 -29 -105t-44.5 -79.5t-62.5 -55.5t-84 -33
q-44 -21 -73.5 -50t-34.5 -52l-2 -10q-4 -20 9 -28t39 -8q15 0 30 2t26 5l-15 -71q-14 -4 -29 -7.5t-42 -3.5z" />
    <glyph glyph-name="uogonek" unicode="&#x173;" horiz-adv-x="577" 
d="M105 552h100l-73 -372q-5 -24 -6 -43t4.5 -32t19 -19.5t38.5 -6.5q35 0 79.5 13.5t91.5 40.5l82 419h100l-107 -552h-89l-2 45q-42 -24 -83.5 -39.5t-91.5 -15.5q-45 0 -75.5 12.5t-47 35.5t-20.5 55t4 71zM342 -223q-65 0 -96.5 28.5t-23.5 70.5l2 10q4 19 16.5 37.5
t30 33.5t37 26.5t37.5 16.5h89q-44 -21 -73.5 -50t-34.5 -52l-2 -10q-4 -20 9 -28t39 -8q15 0 30 2t26 5l-15 -71q-14 -4 -29 -7.5t-42 -3.5z" />
    <glyph glyph-name="Wcircumflex" unicode="&#x174;" horiz-adv-x="928" 
d="M528 954h87l68 -148h-75l-45 80l-78 -80h-83zM511 438q-2 31 -3.5 79t2.5 95q-17 -48 -36.5 -94.5t-33.5 -77.5l-199 -440h-104l-52 750h104l24 -473q1 -15 1.5 -30.5t0.5 -33.5v-39.5t-1 -49.5q10 31 18.5 53t15.5 39t13 31.5t13 29.5l210 473h95l34 -473q2 -30 3 -62.5
t-1 -86.5q9 28 16.5 49t14 38t12.5 32t13 30l211 473h107l-348 -750h-98z" />
    <glyph glyph-name="wcircumflex" unicode="&#x175;" horiz-adv-x="765" 
d="M145 552l33 -339q2 -17 3.5 -43t-0.5 -49h1q9 24 19.5 49.5t18.5 42.5l159 339h86l27 -339q2 -15 3 -41t-1 -51h1q9 23 20 50t19 42l166 339h95l-277 -552h-93l-26 325q-1 10 -1 25v31t1 30.5t2 24.5h-1q-8 -33 -19.5 -61.5t-21.5 -49.5l-155 -325h-89l-65 552h95z
M415 754h87l68 -148h-75l-45 80l-78 -80h-83z" />
    <glyph glyph-name="Ycircumflex" unicode="&#x176;" horiz-adv-x="586" 
d="M336 316l-61 -316h-103l60 314l-153 436h107l68 -222q5 -17 9.5 -31.5t9 -31t10 -35t11.5 -42.5q27 48 49 80t42 60l152 222h115zM356 954h87l68 -148h-75l-45 80l-78 -80h-83z" />
    <glyph glyph-name="ycircumflex" unicode="&#x177;" horiz-adv-x="523" 
d="M551 552l-427 -768h-102l118 217l-93 551h104l49 -346q2 -19 4.5 -45.5t3.5 -68.5h1q14 37 27.5 66.5t23.5 47.5l186 346h105zM290 754h87l68 -148h-75l-45 80l-78 -80h-83z" />
    <glyph glyph-name="Ydieresis" unicode="&#x178;" horiz-adv-x="586" 
d="M336 316l-61 -316h-103l60 314l-153 436h107l68 -222q5 -17 9.5 -31.5t9 -31t10 -35t11.5 -42.5q27 48 49 80t42 60l152 222h115zM261 918h93l-20 -106h-93zM439 918h93l-20 -106h-93z" />
    <glyph glyph-name="Zacute" unicode="&#x179;" horiz-adv-x="590" 
d="M150 158q-14 -15 -31.5 -34t-33.5 -35h424l-16 -89h-547l15 80l461 512l65 69h-398l17 89h521l-15 -80zM409 940h132l-136 -134h-108z" />
    <glyph glyph-name="zacute" unicode="&#x17a;" horiz-adv-x="477" 
d="M460 473l-290 -317q-28 -31 -70 -70h299l-16 -86h-419l14 79l293 318l65 69h-271l17 86h394zM326 740h132l-136 -134h-108z" />
    <glyph glyph-name="Zdotaccent" unicode="&#x17b;" horiz-adv-x="590" 
d="M150 158q-14 -15 -31.5 -34t-33.5 -35h424l-16 -89h-547l15 80l461 512l65 69h-398l17 89h521l-15 -80zM339 918h96l-20 -106h-96z" />
    <glyph glyph-name="zdotaccent" unicode="&#x17c;" horiz-adv-x="477" 
d="M460 473l-290 -317q-28 -31 -70 -70h299l-16 -86h-419l14 79l293 318l65 69h-271l17 86h394zM256 718h96l-20 -106h-96z" />
    <glyph glyph-name="Zcaron" unicode="&#x17d;" horiz-adv-x="590" 
d="M150 158q-14 -15 -31.5 -34t-33.5 -35h424l-16 -89h-547l15 80l461 512l65 69h-398l17 89h521l-15 -80zM416 796h-87l-68 148h75l45 -80l77 80h84z" />
    <glyph glyph-name="zcaron" unicode="&#x17e;" horiz-adv-x="477" 
d="M460 473l-290 -317q-28 -31 -70 -70h299l-16 -86h-419l14 79l293 318l65 69h-271l17 86h394zM322 596h-87l-68 148h75l45 -80l77 80h84z" />
    <glyph glyph-name="longs" unicode="&#x17f;" horiz-adv-x="330" 
d="M104 0h-100l124 642q14 69 55 100.5t111 31.5q32 0 57.5 -4.5t42.5 -9.5l-15 -78q-16 3 -33.5 5t-36.5 2q-23 0 -38 -4t-24 -12t-14 -22t-9 -33z" />
    <glyph glyph-name="uni0180" unicode="&#x180;" horiz-adv-x="595" 
d="M382 552q49 0 82.5 -17t52 -46t23.5 -66.5t-3 -79.5l-25 -130q-10 -54 -27.5 -96t-46.5 -70.5t-71 -43t-102 -14.5q-17 0 -38.5 3t-44 9t-44 15.5t-37.5 23.5l-13 -40h-85l116 598h-71l16 81h71l13 65l105 30l-19 -95h142l-16 -81h-142l-19 -99q35 20 80.5 36.5
t102.5 16.5zM182 414l-57 -294q26 -22 63 -32.5t70 -10.5q71 0 106 39.5t51 120.5l17 85q14 71 -1.5 105.5t-78.5 34.5q-45 0 -90.5 -15t-79.5 -33z" />
    <glyph glyph-name="uni0181" unicode="&#x181;" horiz-adv-x="734" 
d="M193 750h303q55 0 97 -9t68 -30t35 -56.5t-1 -88.5l-7 -38q-9 -45 -33.5 -79.5t-84.5 -53.5q30 -6 49.5 -21t30 -35.5t12.5 -45.5t-4 -52l-15 -77q-10 -54 -30 -86.5t-54 -49.5t-83 -22.5t-118 -5.5h-256l127 660h-47q-28 0 -44 -11t-24 -28t-9.5 -38t-0.5 -42h-91
q-2 99 39.5 154t140.5 55zM270 347l-49 -257h149q49 0 80.5 4.5t51 16t29 31.5t15.5 50l10 52q11 56 -15 79.5t-107 23.5h-164zM332 660l-45 -229h155q27 0 50.5 3.5t42.5 14t32.5 30.5t19.5 53l7 41q5 28 2 45t-17 26.5t-39.5 12.5t-65.5 3h-142z" />
    <glyph glyph-name="uni0182" unicode="&#x182;" horiz-adv-x="626" 
d="M173 347l-49 -257h149q49 0 80.5 5t51 17t29.5 32.5t16 50.5l10 52q11 56 -15.5 78t-107.5 22h-164zM547 167q-11 -54 -32.5 -87t-56.5 -50.5t-85.5 -23.5t-119.5 -6h-248l145 750h446l-17 -90h-344l-45 -229h153q70 0 116.5 -11.5t72.5 -34.5t33 -56.5t-1 -76.5z" />
    <glyph glyph-name="uni0183" unicode="&#x183;" horiz-adv-x="589" 
d="M376 522q49 0 82 -17t52 -46t24 -66.5t-3 -79.5l-19 -100q-10 -54 -27.5 -96t-46.5 -70.5t-71 -43t-102 -14.5q-17 0 -38.5 3t-44 9t-44 15.5t-37.5 23.5l-13 -40h-85l147 758h429l-18 -91h-329l-39 -198q35 20 80.5 36.5t102.5 16.5zM176 384l-51 -264q26 -22 63 -32.5
t70 -10.5q71 0 106 39.5t51 120.5l11 55q14 71 -1.5 105.5t-78.5 34.5q-45 0 -90.5 -15t-79.5 -33z" />
    <glyph glyph-name="uni0184" unicode="&#x184;" horiz-adv-x="605" 
d="M117 750h102l-48 -250h158q69 0 115.5 -9t73 -32t33 -62t-5.5 -100l-18 -94q-13 -65 -36 -104.5t-56.5 -61.5t-78 -29.5t-99.5 -7.5h-55q-55 0 -96 9t-66 33t-32.5 65t5.5 106zM279 93q37 0 62 5.5t41 17t25 30.5t14 46l22 110q6 31 5.5 52t-14 33t-42 17t-77.5 5h-163
l-40 -207q-5 -27 -4.5 -47.5t11 -34t33.5 -20.5t63 -7h64z" />
    <glyph glyph-name="uni0185" unicode="&#x185;" horiz-adv-x="593" 
d="M129 161q-9 -46 15.5 -65t87.5 -19h21q36 0 61.5 10t44 29.5t31 49.5t20.5 71l20 97q14 71 -1.5 105.5t-78.5 34.5q-45 0 -90 -15t-79 -33zM144 744l105 30l-51 -263q35 20 80 36.5t102 16.5q49 0 82.5 -17t52 -46t23.5 -66.5t-3 -79.5l-26 -132q-11 -54 -30.5 -97
t-51 -73.5t-77 -46.5t-108.5 -16h-30q-43 0 -80.5 8.5t-64 28t-38.5 50t-3 74.5z" />
    <glyph glyph-name="uni0186" unicode="&#x186;" horiz-adv-x="605" 
d="M129 737q42 14 85 19.5t90 5.5q80 0 138 -19t92 -61t42.5 -108.5t-9.5 -160.5l-24 -122q-17 -89 -44.5 -147t-71 -93t-105.5 -49t-149 -14q-20 0 -45 1.5t-52 5t-52.5 9.5t-44.5 15l17 89q47 -16 94 -20.5t85 -4.5q80 0 128.5 18t77 49.5t42 73.5t22.5 89l26 131
q9 45 10 86t-16 71.5t-59 48.5t-118 18q-47 0 -96 -5.5t-81 -15.5z" />
    <glyph glyph-name="uni0187" unicode="&#x187;" horiz-adv-x="601" 
d="M605 647q-14 5 -33 9t-41.5 6.5t-47 4t-47.5 1.5q-76 0 -124 -18t-77.5 -48.5t-44 -71.5t-23.5 -86l-26 -131q-9 -47 -11.5 -89t14 -73.5t58 -49.5t119.5 -18q39 0 88 4.5t102 20.5l-17 -89q-48 -18 -97.5 -24.5t-89.5 -6.5q-91 0 -150.5 19t-92 60t-38 104t11.5 152
l24 122q18 94 50.5 155.5t79 97.5t108 50t139.5 14q21 0 43.5 -1.5t44.5 -3.5l2 7q16 78 54.5 111.5t104.5 33.5q23 0 41 -2.5t33 -7.5l-17 -83q-11 3 -23 5t-29 2q-28 0 -43.5 -14.5t-23.5 -56.5l-3 -15l-10 -49z" />
    <glyph glyph-name="uni0188" unicode="&#x188;" horiz-adv-x="475" 
d="M537 700q41 0 69 -10l-14 -75q-9 2 -21 4.5t-30 2.5q-27 0 -42 -15.5t-23 -56.5l-11 -59l-6 -34q-23 8 -58 13.5t-73 5.5q-49 0 -82 -12.5t-54 -34.5t-33 -51.5t-19 -63.5l-15 -76q-7 -36 -7 -65.5t13 -50t41 -32t77 -11.5q32 0 70 5t80 19l-17 -86q-16 -8 -36 -13.5
t-40 -8.5t-38.5 -4.5t-31.5 -1.5q-131 0 -183 63t-26 196l12 62q13 69 37.5 117.5t60.5 79t83 44t107 13.5q27 0 54 -3q15 74 54.5 106.5t101.5 32.5z" />
    <glyph glyph-name="uni0189" unicode="&#x189;" horiz-adv-x="745" 
d="M55 0l65 339h-79l17 93h80l62 318h240q91 0 149.5 -19t89 -60.5t35 -106.5t-13.5 -156l-19 -98q-18 -90 -42.5 -150t-65 -95.5t-101.5 -50t-152 -14.5h-265zM284 655l-44 -223h204l-17 -93h-205l-47 -244h148q70 0 115 14t72.5 41t42 67t24.5 93l24 122q10 52 11.5 93
t-14.5 70t-54 44.5t-107 15.5h-153z" />
    <glyph glyph-name="uni018A" unicode="&#x18a;" horiz-adv-x="792" 
d="M102 0l127 660h-47q-28 0 -44 -11t-24 -28t-9.5 -38t-0.5 -42h-91q-2 99 39.5 154t140.5 55h294q91 0 149.5 -19t89 -60.5t35 -106.5t-13.5 -156l-19 -98q-18 -90 -42.5 -150t-65 -95.5t-101.5 -50t-152 -14.5h-265zM331 655l-109 -560h148q70 0 115 14t72.5 41t42 67
t24.5 93l24 122q10 52 11.5 93t-14.5 70t-54 44.5t-107 15.5h-153z" />
    <glyph glyph-name="uni018B" unicode="&#x18b;" horiz-adv-x="638" 
d="M287 347q-41 0 -69 -5t-46.5 -17t-29 -31t-16.5 -47l-10 -52q-6 -30 -3.5 -50.5t17.5 -32.5t44.5 -17t78.5 -5h149l49 257h-164zM28 272q8 43 25.5 73.5t49.5 49.5t80.5 27.5t119.5 8.5h165l45 229h-344l17 90h447l-145 -750h-247q-69 0 -117.5 9t-77 30.5t-37.5 57.5
t2 90z" />
    <glyph glyph-name="uni018C" unicode="&#x18c;" horiz-adv-x="587" 
d="M265 522q56 0 100 -17t72 -36l39 198h-330l18 92h430l-147 -759h-86l2 40q-45 -29 -93 -40t-81 -11q-58 0 -95.5 17t-57 48.5t-22.5 76t8 98.5l19 100q8 42 25 77t44 61t65.5 40.5t89.5 14.5zM421 384q-28 18 -67.5 33t-83.5 15q-32 0 -54.5 -8.5t-38 -26t-25.5 -44
t-17 -61.5l-11 -55q-16 -81 4 -120.5t91 -39.5q34 0 74.5 10.5t75.5 32.5z" />
    <glyph glyph-name="uni018D" unicode="&#x18d;" horiz-adv-x="572" 
d="M263 -95q3 15 -7.5 28.5t-32.5 29t-53 36t-70 50.5q-55 42 -69.5 103.5t-0.5 129.5l9 45q23 121 90.5 179t178.5 58q118 0 168 -66.5t27 -187.5l-9 -45q-11 -55 -33.5 -95.5t-54 -67.5t-70 -41.5t-80.5 -17.5q36 -23 58 -41t34 -35t14.5 -34t-1.5 -37l-1 -5
q-5 -22 -15.5 -42.5t-31.5 -36.5t-55.5 -25.5t-85.5 -9.5q-42 0 -82.5 7t-70.5 24l16 85q32 -17 71 -24t68 -7q48 0 67 11.5t21 24.5zM301 477q-64 0 -106.5 -37t-59.5 -126l-5 -29q-17 -89 10 -130.5t91 -41.5q65 0 108 41.5t60 130.5l5 29q17 89 -10.5 126t-92.5 37z" />
    <glyph glyph-name="uni018E" unicode="&#x18e;" horiz-adv-x="607" 
d="M602 750l-145 -750h-476l18 95h373l48 246h-328l18 93h328l43 221h-360l18 95h463z" />
    <glyph glyph-name="uni018F" unicode="&#x18f;" horiz-adv-x="677" 
d="M44 414h487l9 52q8 46 6 84t-21.5 64t-59 40.5t-105.5 14.5q-20 0 -45 -2t-52.5 -6.5t-55.5 -11t-53 -14.5l18 90q49 20 97.5 28.5t90.5 8.5q177 0 242.5 -85t34.5 -251l-17 -93q-17 -95 -50 -160.5t-78 -106t-101.5 -58.5t-121.5 -18q-48 0 -99 15t-89.5 52.5t-56 101
t1.5 161.5zM129 326l-8 -37q-9 -41 -6 -78.5t21 -66t52.5 -45.5t87.5 -17q51 0 90 16t67.5 44t46.5 65.5t27 81.5l8 37h-386z" />
    <glyph glyph-name="uni0190" unicode="&#x190;" horiz-adv-x="565" 
d="M294 339q-30 0 -59.5 -4.5t-54 -18.5t-43 -39t-26.5 -67q-11 -57 27 -91t129 -34q60 0 118 10t102 27l-18 -95q-39 -15 -91.5 -27t-122.5 -12q-138 0 -203 59t-44 167q27 139 173 173q-34 11 -53 31.5t-27.5 44.5t-9 50t4.5 48q20 101 95 151.5t203 50.5q60 0 109 -8.5
t84 -23.5l-19 -92q-39 16 -82.5 23t-95.5 7q-76 0 -128 -27.5t-63 -90.5q-13 -63 15 -91.5t96 -28.5h129l-17 -92h-128z" />
    <glyph glyph-name="uni0191" unicode="&#x191;" horiz-adv-x="561" 
d="M604 750l-18 -96h-352l-48 -240h322l-18 -96h-322l-55 -287l-6 -31q-8 -44 -21 -76.5t-33.5 -54.5t-50 -32.5t-69.5 -10.5q-26 0 -49.5 3t-40.5 9l18 89q12 -4 28.5 -7t37.5 -3q32 0 50.5 20.5t28.5 68.5l5 24v1l139 719h454z" />
    <glyph glyph-name="florin" unicode="&#x192;" horiz-adv-x="370" 
d="M244 552h134l-18 -87h-134l-89 -465q-8 -44 -21 -76.5t-33 -54.5t-49 -32.5t-69 -10.5q-26 0 -49.5 3t-40.5 9l18 89q12 -4 28.5 -7t37.5 -3q32 0 50.5 20.5t28.5 68.5l88 459h-88l18 87h88l17 90q13 69 54.5 100.5t111.5 31.5q32 0 57.5 -4.5t42.5 -9.5l-15 -78
q-16 3 -33.5 5t-36.5 2q-23 0 -38 -4t-24 -12t-14 -22t-9 -33z" />
    <glyph glyph-name="uni0193" unicode="&#x193;" horiz-adv-x="668" 
d="M611 648q-15 5 -35 8.5t-43 6t-46 4t-44 1.5q-80 0 -129.5 -17.5t-79 -48t-44 -71.5t-23.5 -87l-26 -133q-11 -51 -12.5 -93.5t16.5 -72.5t62.5 -46.5t125.5 -16.5q29 0 61.5 3t60.5 11l45 221h-151l17 91h252l-75 -385q-26 -10 -56.5 -16.5t-61.5 -10.5t-60 -6t-53 -2
q-91 0 -151.5 18.5t-94 58t-40 102.5t10.5 152l24 121q18 94 49.5 156t78 99t110 52t146.5 15q20 0 42.5 -1t45.5 -3l2 6q17 78 55 111.5t104 33.5q23 0 41 -2.5t33 -7.5l-17 -83q-11 3 -23 5t-29 2q-28 0 -43.5 -14.5t-23.5 -56.5l-13 -64z" />
    <glyph glyph-name="uni0194" unicode="&#x194;" horiz-adv-x="574" 
d="M58 138q8 35 27.5 61t36.5 48l99 125l-147 378h104l112 -291l230 291h110l-305 -383l37 -97q6 -16 13 -34t12 -36.5t7 -36.5t-1 -34l-3 -15q-12 -60 -57 -93.5t-136 -33.5q-43 0 -72.5 13t-46.5 33.5t-22.5 46t0.5 49.5zM257 281l-49 -61q-14 -17 -22.5 -29t-14.5 -21
t-9 -16t-5 -15l-2 -8q-12 -60 59 -60q38 0 57.5 19.5t24.5 42.5l1 6q3 13 0 29t-16 52z" />
    <glyph glyph-name="uni0195" unicode="&#x195;" horiz-adv-x="901" 
d="M468 181q-5 -24 -3 -43t13 -32t32 -20t54 -7q60 0 91.5 26t41.5 75l73 372h100l-74 -381q-17 -87 -73.5 -134t-165.5 -47q-46 0 -85 9.5t-66 31t-38 57t-1 87.5l39 198q5 24 6 43t-4 32t-18.5 19.5t-38.5 6.5q-35 0 -76.5 -11.5t-89.5 -36.5l-82 -426h-100l145 744
l105 30l-51 -263q45 26 88.5 39.5t81.5 13.5q90 0 121.5 -46.5t16.5 -123.5z" />
    <glyph glyph-name="uni0196" unicode="&#x196;" horiz-adv-x="222" 
d="M109 153q-8 -41 -3 -57.5t40 -16.5q18 0 40.5 2.5t43.5 8.5l-17 -85q-23 -8 -50 -11.5t-51 -3.5q-70 0 -94.5 41.5t-7.5 126.5l115 586l105 30z" />
    <glyph glyph-name="uni0197" unicode="&#x197;" horiz-adv-x="360" 
d="M239 430h113l-16 -81h-113l-67 -349h-102l67 349h-113l16 81h113l62 320h102z" />
    <glyph glyph-name="uni0198" unicode="&#x198;" horiz-adv-x="647" 
d="M349 382l213 -382h-117l-180 331h-94l-64 -331h-102l145 750h102l-63 -325h84l216 251q35 41 69 64t84 23q21 0 34.5 -5t20.5 -11l-15 -82q-8 5 -16.5 7t-22.5 2q-28 0 -43.5 -13.5t-33.5 -33.5z" />
    <glyph glyph-name="uni0199" unicode="&#x199;" horiz-adv-x="527" 
d="M168 347h58l206 205h123l-258 -251l155 -301h-109l-127 257h-65l-49 -257h-99l121 622q15 77 51 114.5t107 37.5q26 0 43.5 -2.5t31.5 -7.5l-15 -79q-11 3 -23 5t-29 2q-31 0 -45.5 -16.5t-22.5 -57.5z" />
    <glyph glyph-name="uni019A" unicode="&#x19a;" horiz-adv-x="342" 
d="M144 0h-100l69 355h-108l16 81h108l60 308l105 30l-66 -338h109l-16 -81h-108z" />
    <glyph glyph-name="uni019B" unicode="&#x19b;" horiz-adv-x="517" 
d="M88 530l145 63l-7 68q-2 16 -10 24t-28 8q-15 0 -30 -4.5t-26 -9.5l14 77q34 18 74 18q47 0 69.5 -20.5t29.5 -58.5l10 -61l149 64l-15 -80l-122 -53l97 -565h-98l-43 294q-2 11 -4 26t-4.5 31.5t-3.5 34t-1 33.5h-2q-13 -32 -30.5 -65.5t-33.5 -60.5l-168 -293h-111
l304 511l-2 11l-168 -72z" />
    <glyph glyph-name="uni019C" unicode="&#x19c;" horiz-adv-x="959" 
d="M148 750h102l-110 -565q-10 -49 7.5 -75.5t64.5 -26.5q42 0 86.5 13t87.5 38q-1 11 0.5 23t3.5 24l110 569h102l-110 -565q-10 -49 8 -75.5t65 -26.5q38 0 80 12.5t87 38.5l120 616h102l-145 -750h-91l-2 45q-35 -23 -79.5 -39t-97.5 -16q-51 0 -84.5 19t-50.5 51
q-46 -32 -98 -51t-122 -19q-43 0 -74 15t-49.5 41.5t-24.5 61t2 73.5z" />
    <glyph glyph-name="uni019D" unicode="&#x19d;" horiz-adv-x="703" 
d="M553 0h-110l-186 498q-8 23 -16.5 50t-16.5 61l-111 -578l-6 -31q-8 -44 -20.5 -76.5t-32.5 -54.5t-49 -32.5t-69 -10.5q-26 0 -49.5 3t-40.5 9l18 89q12 -4 28.5 -7t37.5 -3q32 0 50.5 20.5t28.5 68.5l5 24v1l139 719h110l185 -497q5 -13 9 -24.5t8 -24t8 -28t8 -36.5
l118 610h99z" />
    <glyph glyph-name="uni019E" unicode="&#x19e;" horiz-adv-x="585" 
d="M302 -216l114 589q10 49 0.5 75t-58.5 26q-36 0 -82 -12.5t-92 -38.5l-81 -423h-100l107 552h89l2 -43q43 25 88.5 40t89.5 15q45 0 75.5 -12t47.5 -34.5t21 -54t-3 -69.5l-118 -610h-100z" />
    <glyph glyph-name="uni019F" unicode="&#x19f;" horiz-adv-x="729" 
d="M670 319q-32 -163 -125 -247t-245 -84q-76 0 -132.5 22.5t-90 66t-44 107t5.5 144.5l20 104q32 162 125 246t246 84q76 0 132 -22.5t89.5 -66t44 -106.5t-5.5 -144zM308 84q49 0 90.5 13t75 42.5t57.5 76t37 113.5l2 10h-425l-2 -10q-13 -67 -7 -113.5t28 -76t59 -42.5
t85 -13zM586 421q13 67 7.5 113.5t-27.5 75.5t-58.5 42.5t-85.5 13.5t-91 -13.5t-75.5 -42.5t-57.5 -75.5t-37 -113.5v-1h425v1z" />
    <glyph glyph-name="Ohorn" unicode="&#x1a0;" horiz-adv-x="752" 
d="M670 319q-32 -163 -125 -247t-245 -84q-76 0 -132.5 22.5t-90 66t-44 107t5.5 144.5l20 104q32 162 125 246t246 84q78 0 134.5 -24t89.5 -69h36q29 0 46 12t25 30.5t9 41.5t-1 45h92q3 -48 -5 -87.5t-28.5 -68t-53.5 -44.5t-81 -17q14 -68 -3 -158zM586 421
q13 67 7.5 113.5t-27.5 75.5t-58.5 42.5t-85.5 13.5t-91 -13.5t-75.5 -42.5t-57.5 -75.5t-37 -113.5l-18 -92q-13 -67 -7 -113.5t28 -76t59 -42.5t85 -13q49 0 90.5 13t75 42.5t57.5 76t37 113.5z" />
    <glyph glyph-name="ohorn" unicode="&#x1a1;" horiz-adv-x="619" 
d="M498 238q-23 -121 -92.5 -184.5t-183.5 -63.5q-113 0 -166.5 67.5t-30.5 188.5l14 70q23 121 92.5 184.5t182.5 63.5q66 0 113 -23.5t70 -68.5h14q28 0 43 11t22 28.5t8.5 38t1.5 39.5h82q1 -41 -6 -76t-24.5 -62t-47 -43.5t-72.5 -18.5q2 -19 0 -39t-6 -42zM412 312
q17 89 -12.5 127t-92.5 38t-107 -38t-61 -127l-14 -70q-17 -89 12.5 -127t91.5 -38q64 0 108 38t61 127z" />
    <glyph glyph-name="uni01A2" unicode="&#x1a2;" horiz-adv-x="987" 
d="M670 319q-32 -163 -125 -247t-245 -84q-76 0 -132.5 22.5t-90 66t-44 107t5.5 144.5l20 104q32 162 125 246t246 84q115 0 186 -54q35 21 82.5 38t104.5 17q100 0 142.5 -48.5t26.5 -129.5l-156 -801h-100l153 784q5 27 4.5 46.5t-9.5 32t-28 18t-49 5.5q-56 0 -116 -29
q45 -84 19 -218zM586 421q13 67 7.5 113.5t-27.5 75.5t-58.5 42.5t-85.5 13.5t-91 -13.5t-75.5 -42.5t-57.5 -75.5t-37 -113.5l-18 -92q-13 -67 -7 -113.5t28 -76t59 -42.5t85 -13q49 0 90.5 13t75 42.5t57.5 76t37 113.5z" />
    <glyph glyph-name="uni01A3" unicode="&#x1a3;" horiz-adv-x="816" 
d="M498 238q-23 -121 -92.5 -184.5t-183.5 -63.5q-113 0 -166.5 67.5t-30.5 188.5l14 70q23 121 92.5 184.5t182.5 63.5q95 0 148 -47q29 20 69.5 33.5t88.5 13.5q92 0 129.5 -46t21.5 -126l-118 -608h-100l116 594q11 55 -1 78.5t-63 23.5q-23 0 -48 -6.5t-52 -20.5
q23 -61 7 -145zM412 312q17 89 -12.5 127t-92.5 38t-107 -38t-61 -127l-14 -70q-17 -89 12.5 -127t91.5 -38q64 0 108 38t61 127z" />
    <glyph glyph-name="uni01A4" unicode="&#x1a4;" horiz-adv-x="735" 
d="M193 750h309q58 0 104.5 -8t76.5 -31t41 -63.5t-1 -104.5l-9 -47q-12 -61 -33.5 -99.5t-56.5 -60.5t-85 -30.5t-119 -8.5h-159l-57 -297h-102l127 660h-47q-28 0 -44 -11t-24 -28t-9.5 -38t-0.5 -42h-91q-2 99 39.5 154t140.5 55zM331 657l-52 -269h144q51 0 84.5 5
t54.5 17t32 32.5t17 52.5l12 63q5 27 2.5 46t-16.5 30.5t-40.5 17t-69.5 5.5h-168z" />
    <glyph glyph-name="uni01A5" unicode="&#x1a5;" horiz-adv-x="597" 
d="M-40 -216l138 708l25 130q15 77 51 114.5t107 37.5q26 0 43.5 -2.5t31.5 -7.5l-15 -79q-11 3 -23 5t-29 2q-31 0 -45.5 -16.5t-22.5 -57.5l-21 -107v-3q42 23 86.5 39.5t97.5 16.5q48 0 81.5 -17t52.5 -45.5t24.5 -66t-2.5 -77.5l-28 -146q-12 -59 -31.5 -101.5
t-50.5 -69.5t-75.5 -39.5t-105.5 -12.5q-13 0 -32 1.5t-40 5t-40.5 8t-32.5 10.5l-44 -230h-100zM184 422l-62 -322q26 -11 60.5 -17t64.5 -6q46 0 76 13t48.5 35t27.5 49.5t15 56.5l21 107q6 33 6.5 58.5t-8 42.5t-27.5 26t-52 9q-38 0 -84.5 -15t-85.5 -37z" />
    <glyph glyph-name="uni01A6" unicode="&#x1a6;" horiz-adv-x="654" 
d="M150 750h102l-19 -97h152q58 0 104.5 -9.5t76.5 -33.5t41 -65.5t-2 -105.5l-10 -53q-8 -42 -20 -70.5t-30.5 -48t-44.5 -32t-61 -21.5l92 -320h-108l-87 306h-191l-38 -200h-102zM216 560l-54 -269h144q51 0 84.5 5t54.5 17t32.5 32.5t17.5 52.5l11 63q6 27 3 46
t-17 30.5t-40.5 17t-67.5 5.5h-168z" />
    <glyph glyph-name="uni01A7" unicode="&#x1a7;" 
d="M6 215q8 40 20 70t37 54t68 43t112 36l93 23q32 8 54 17t37 22t23.5 30.5t13.5 42.5q6 31 3.5 52.5t-18 35t-47 20t-83.5 6.5q-40 0 -89 -4.5t-93 -15.5l18 88q36 13 86.5 19t106.5 6q68 0 114.5 -14t72.5 -41t33.5 -66.5t-2.5 -90.5q-9 -46 -26 -78.5t-43.5 -56
t-63.5 -39.5t-85 -28l-93 -23q-43 -11 -69.5 -22t-42 -25.5t-23 -33t-12.5 -43.5q-5 -26 -2.5 -47.5t16.5 -36.5t43 -23t76 -8q42 0 104.5 7.5t140.5 33.5l-18 -96q-68 -23 -125 -31t-118 -8q-75 0 -121.5 18t-71.5 48.5t-30 71.5t4 87z" />
    <glyph glyph-name="uni01A8" unicode="&#x1a8;" horiz-adv-x="450" 
d="M-4 161q7 37 18 61.5t32 41.5t54 29.5t85 24.5l42 10q27 6 44.5 12.5t28.5 15t16.5 21t9.5 31.5q4 20 1.5 33.5t-14 22t-32 12t-53.5 3.5q-29 0 -66 -5t-69 -14l17 84q60 20 147 20q105 0 144.5 -43.5t20.5 -118.5q-10 -37 -21.5 -62t-32 -42.5t-51.5 -30t-80 -24.5
l-42 -10q-33 -8 -52 -15.5t-29 -16.5t-14.5 -22t-7.5 -31q-7 -36 11.5 -54t79.5 -18q32 0 80 6.5t106 27.5l-18 -87q-47 -18 -94.5 -25.5t-86.5 -7.5q-57 0 -94 14t-57 37t-25 54t2 66z" />
    <glyph glyph-name="uni01A9" unicode="&#x1a9;" horiz-adv-x="550" 
d="M569 750l-18 -92h-332l150 -289l-257 -277h338l-18 -92h-466l15 77l276 303l-160 296l14 74h458z" />
    <glyph glyph-name="uni01AA" unicode="&#x1aa;" horiz-adv-x="374" 
d="M179 575q29 0 49.5 20t20.5 55q0 21 -11.5 33.5t-34.5 12.5q-29 0 -50 -22t-21 -54q0 -22 12.5 -33.5t34.5 -11.5zM205 502q-21 -6 -42 -6q-54 0 -84.5 32.5t-30.5 80.5q0 34 11.5 64t32.5 52.5t50.5 35.5t64.5 13q58 0 92 -33t34 -81q0 -6 -0.5 -12.5t-1.5 -11.5
l-124 -637q-9 -48 3.5 -67.5t45.5 -19.5q21 0 39 3t32 7l-17 -84q-20 -6 -42.5 -9t-49.5 -3q-76 0 -102 43t-9 132z" />
    <glyph glyph-name="uni01AB" unicode="&#x1ab;" horiz-adv-x="399" 
d="M377 465h-143l-60 -311q-8 -39 -0.5 -56.5t39.5 -17.5q23 0 48 4t45 12l-14 -65h1l-6 -30q-8 -44 -21 -77t-33.5 -55t-49.5 -32.5t-70 -10.5q-26 0 -49.5 3t-40.5 9l18 89q12 -4 28.5 -7t37.5 -3q29 0 47 17.5t28 55.5q-66 0 -96 36.5t-17 102.5l65 336h-88l18 87h88
l22 114l105 30l-27 -144h143z" />
    <glyph glyph-name="uni01AC" unicode="&#x1ac;" horiz-adv-x="601" 
d="M304 654h-103q-28 0 -45 -8.5t-26 -23.5t-11 -36t-1 -45h-91q-2 99 39.5 154t140.5 55h448l-18 -96h-231l-127 -654h-102z" />
    <glyph glyph-name="uni01AD" unicode="&#x1ad;" horiz-adv-x="399" 
d="M377 465h-143l-60 -311q-8 -39 -0.5 -56.5t39.5 -17.5q23 0 48 4t45 12l-17 -83q-21 -13 -51.5 -18t-54.5 -5q-66 0 -96.5 36.5t-17.5 102.5l65 336h-88l18 87h88l14 70q15 77 51 114.5t107 37.5q26 0 43.5 -2.5t31.5 -7.5l-15 -79q-11 3 -23 5t-29 2q-28 0 -43.5 -12.5
t-21.5 -44.5l-15 -83h143z" />
    <glyph glyph-name="uni01AE" unicode="&#x1ae;" horiz-adv-x="602" 
d="M73 654l18 96h565l-18 -96h-231l-121 -623l-6 -31h-1q-8 -44 4 -62.5t44 -18.5q21 0 39 3t32 7l-18 -91q-20 -6 -37 -9t-44 -3q-77 0 -107.5 47t-14.5 128l6 30l121 623h-231z" />
    <glyph glyph-name="Uhorn" unicode="&#x1af;" horiz-adv-x="779" 
d="M244 750l-90 -466q-11 -56 -7.5 -94t21.5 -61t51 -32.5t81 -9.5q50 0 87.5 9.5t64.5 32.5t45.5 61t29.5 94l90 466h104l-16 -81h12q29 0 46 12t25 30.5t9 41.5t-1 45h92q3 -50 -5.5 -90t-30 -68t-56.5 -43.5t-85 -15.5h-23l-59 -308q-14 -75 -39 -128.5t-65.5 -88.5
t-97.5 -51.5t-136 -16.5q-299 0 -240 302l89 460h104z" />
    <glyph glyph-name="uhorn" unicode="&#x1b0;" horiz-adv-x="646" 
d="M105 552h100l-73 -372q-5 -24 -6 -43t4.5 -32t19 -19.5t38.5 -6.5q35 0 79.5 13.5t91.5 40.5l82 419h100l-16 -80h13q28 0 43 11t22 28.5t8.5 38t1.5 39.5h82q1 -42 -6.5 -78.5t-26.5 -63.5t-51 -42.5t-79 -15.5h-23l-75 -389h-89l-2 45q-42 -24 -83.5 -39.5t-91.5 -15.5
q-45 0 -75.5 12.5t-47 35.5t-20.5 55t4 71z" />
    <glyph glyph-name="uni01B1" unicode="&#x1b1;" horiz-adv-x="783" 
d="M330 83q44 0 85 13.5t74.5 42.5t58.5 75t38 112l17 92q10 52 8 92.5t-14 70.5t-32.5 49.5t-45.5 28.5l17 91h302l-17 -89h-166q18 -17 32 -39t22 -50t9 -63.5t-8 -79.5l-22 -113q-16 -82 -49 -143.5t-79.5 -103t-106 -62t-128.5 -20.5t-124 23t-90 67.5t-47.5 108.5
t3.5 146l22 113q17 88 56 137.5t90 78.5h-165l17 89h297l-17 -91q-30 -9 -58 -28.5t-52 -49.5t-42.5 -70.5t-28.5 -92.5l-17 -92q-13 -66 -6 -112t29.5 -75t58 -42.5t79.5 -13.5z" />
    <glyph glyph-name="uni01B2" unicode="&#x1b2;" horiz-adv-x="600" 
d="M176 750l74 -474q6 -37 12 -73.5t9 -79.5q17 42 37 79l40 74l175 317q6 11 14 28t8 33q0 21 -40 21q-10 0 -20 -1t-18 -3l16 85q30 6 61 6q28 0 48 -6.5t33 -17.5t19 -25t6 -30q0 -32 -12 -64t-29 -63l-307 -556h-102l-130 750h106z" />
    <glyph glyph-name="uni01B3" unicode="&#x1b3;" horiz-adv-x="639" 
d="M618 673q-15 0 -25 -5.5t-19 -17.5l-238 -334l-61 -316h-103l60 314l-153 436h106l68 -222q5 -17 9.5 -31.5t9 -31t10 -35t11.5 -42.5q27 48 49 80t42 60l95 139q31 45 64.5 70t87.5 25q48 0 78 -24t29 -72q0 -27 -7.5 -51.5t-20.5 -50.5h-84q5 11 10 23.5t9 32.5
q5 29 -1 41t-26 12z" />
    <glyph glyph-name="uni01B4" unicode="&#x1b4;" horiz-adv-x="584" 
d="M124 -216h-102l118 217l-93 551h104l49 -346q2 -19 4 -45.5t4 -68.5h1q14 37 27.5 66.5t23.5 47.5l259 478q26 47 61 68.5t89 21.5q20 0 37.5 -3.5t27.5 -9.5l-15 -81q-12 5 -21.5 6t-19.5 1q-28 0 -46 -10.5t-33 -37.5z" />
    <glyph glyph-name="uni01B5" unicode="&#x1b5;" horiz-adv-x="590" 
d="M394 429h140l-16 -79h-195l-173 -192q-14 -15 -31.5 -34t-33.5 -35h424l-16 -89h-547l15 80l243 270h-138l16 79h193l147 163l65 69h-398l17 89h521l-15 -80z" />
    <glyph glyph-name="uni01B6" unicode="&#x1b6;" horiz-adv-x="477" 
d="M68 324h136l67 73l65 69h-271l17 86h394l-16 -79l-137 -149h76l-17 -79h-131l-81 -89q-28 -31 -70 -70h299l-16 -86h-419l14 79l153 166h-80z" />
    <glyph glyph-name="uni01B7" unicode="&#x1b7;" horiz-adv-x="604" 
d="M470 661h-385l17 89h512l-15 -81l-302 -319q87 2 137 -21.5t72.5 -62.5t23 -89t-9.5 -101l-9 -48q-11 -57 -38 -103.5t-72 -79t-108 -50.5t-147 -18t-151 14.5t-105 31.5l17 95q48 -19 107.5 -32t142.5 -13q58 0 102 13t75 36.5t49.5 55t26.5 69.5l6 32q9 43 9 77.5
t-15 59t-49.5 37.5t-95.5 13q-21 0 -50 -2t-57 -5l6 76z" />
    <glyph glyph-name="uni01B8" unicode="&#x1b8;" horiz-adv-x="621" 
d="M450 335l-24 -76q-28 3 -51.5 5t-44.5 2q-61 0 -100.5 -13t-64 -37.5t-38 -59t-22.5 -77.5l-6 -32q-8 -38 -1.5 -69.5t29 -55t62 -36.5t97.5 -13q82 0 146.5 13t119.5 32l-18 -95q-47 -17 -114 -31.5t-160 -14.5q-84 0 -140 22.5t-87 61.5t-39 90t3 108l9 48
q10 51 29.5 96.5t56 78.5t94 51.5t144.5 16.5l-176 319l15 81h512l-17 -89h-388z" />
    <glyph glyph-name="uni01B9" unicode="&#x1b9;" horiz-adv-x="530" 
d="M369 222l-39 -77q-21 2 -40.5 3.5t-36.5 1.5q-81 0 -121.5 -31.5t-54.5 -100.5l-4 -26q-11 -57 21 -89.5t115 -32.5q66 0 116.5 10.5t95.5 25.5l-18 -92q-37 -14 -94 -25.5t-124 -11.5q-68 0 -112.5 19t-68.5 50.5t-30.5 72.5t2.5 85l7 39q8 41 25 76t49 61t80.5 40.5
t119.5 13.5l-138 239l16 79h405l-17 -86h-292q13 -19 22 -34t20 -35z" />
    <glyph glyph-name="uni01BA" unicode="&#x1ba;" horiz-adv-x="527" 
d="M-28 -80q4 30 17 50.5t36.5 35t59.5 24.5t87 18q55 9 90.5 19t57 23t31.5 30t14 39q5 27 -1 43.5t-23.5 26t-45.5 12.5t-66 3q-17 0 -43 -1.5t-49 -3.5l-8 67l126 105q21 18 42 31t43 24h-274l17 86h404l-16 -79l-206 -155q69 1 111 -11.5t63 -35t24.5 -53.5t-3.5 -68
q-10 -50 -32.5 -81.5t-58 -51.5t-85.5 -31.5t-114 -21.5q-27 -4 -45.5 -8t-29.5 -9.5t-17 -13t-8 -18.5q-2 -8 2 -17t16 -16.5t35 -12.5t59 -5q54 0 97 9.5t86 24.5l-16 -86q-38 -14 -81.5 -24.5t-103.5 -10.5t-99.5 12.5t-61 32.5t-28.5 45.5t-3 52.5z" />
    <glyph glyph-name="uni01BB" unicode="&#x1bb;" horiz-adv-x="610" 
d="M-21 0l17 93l251 209h-176l15 79h256q30 26 50.5 46t33.5 38.5t21 37.5t13 44l3 15q5 26 1.5 44.5t-19 30t-44 17t-72.5 5.5q-51 0 -107.5 -10.5t-100.5 -27.5l19 97q19 7 44.5 13.5t53 11.5t56.5 8.5t55 3.5q132 0 183.5 -51t34.5 -139l-3 -16q-11 -53 -32 -91.5
t-58 -76.5h74l-15 -79h-147q-4 -4 -6 -5l-245 -203h364l-17 -94h-503z" />
    <glyph glyph-name="uni01BC" unicode="&#x1bc;" horiz-adv-x="602" 
d="M103 716h475l-18 -91h-276l-64 -192q24 3 45.5 5t47.5 2q68 0 110.5 -17t64.5 -46t26.5 -66.5t-3.5 -78.5l-10 -50q-9 -44 -29 -79.5t-54.5 -60.5t-86 -38.5t-121.5 -13.5q-67 0 -122.5 11.5t-87.5 25.5l18 92q38 -15 90.5 -25.5t113.5 -10.5q79 0 125.5 30t57.5 87l6 33
q13 68 -22.5 93.5t-123.5 25.5q-18 0 -40 -1.5t-45 -3.5t-46 -5.5t-42 -6.5l94 290h-101z" />
    <glyph glyph-name="uni01BD" unicode="&#x1bd;" horiz-adv-x="451" 
d="M64 552h368l-18 -87h-196l-38 -127q16 2 30 3t29 1q52 0 84 -14.5t47.5 -38t18.5 -52.5t-3 -58l-8 -41q-14 -69 -66.5 -108.5t-153.5 -39.5q-53 0 -98 9t-68 20l17 89q29 -12 65.5 -20t84.5 -8q21 0 41.5 2.5t37.5 10t29 22t17 38.5l4 25q9 46 -10 64.5t-79 18.5
q-39 0 -73 -4t-66 -9l64 217h-78z" />
    <glyph glyph-name="uni01BE" unicode="&#x1be;" horiz-adv-x="501" 
d="M355 370q14 -12 29.5 -25.5t26.5 -35t14.5 -54t-6.5 -82.5q-9 -48 -27 -82.5t-48.5 -57t-76.5 -33t-111 -10.5q-56 0 -104.5 13t-80.5 29l18 92q38 -17 82.5 -29t94.5 -12q40 0 67.5 6t46 18.5t28.5 33t16 50.5q4 24 4 40t-6 28.5t-17 24t-29 25.5q-27 21 -45 37.5
t-28.5 34t-14 37.5t-0.5 47h-128l18 87h127l22 114l105 30l-27 -144h143l-18 -87h-141q1 -23 14 -43.5t52 -51.5z" />
    <glyph glyph-name="uni01BF" unicode="&#x1bf;" horiz-adv-x="591" 
d="M518 246q-16 -81 -61 -130t-104.5 -75.5t-126.5 -36.5t-126 -14l-40 -206h-100l150 768h89l1 -44q42 23 86.5 39.5t97.5 16.5q48 0 81.5 -17t52.5 -45.5t24.5 -66t-2.5 -77.5zM435 335q6 33 6.5 59t-8 43.5t-27.5 27t-52 9.5q-38 0 -84.5 -15t-85.5 -37l-67 -344
q62 3 113.5 13t90 30.5t63.5 53.5t35 82z" />
    <glyph glyph-name="uni01C0" unicode="&#x1c0;" horiz-adv-x="228" 
d="M39 -216h-83l193 990h83z" />
    <glyph glyph-name="uni01C1" unicode="&#x1c1;" horiz-adv-x="406" 
d="M39 -216h-83l193 990h83zM217 -216h-84l193 990h84z" />
    <glyph glyph-name="uni01C2" unicode="&#x1c2;" horiz-adv-x="307" 
d="M202 414h107l-13 -75h-108l-18 -89h108l-15 -75h-107l-76 -391h-83l76 391h-107l15 75h106l18 89h-105l13 75h106l71 360h83z" />
    <glyph glyph-name="uni01C3" unicode="&#x1c3;" horiz-adv-x="288" 
d="M269 750l-119 -533h-77l87 533h109zM34 125h117l-23 -125h-117z" />
    <glyph glyph-name="uni01C4" unicode="&#x1c4;" horiz-adv-x="1276" 
d="M5 0l145 750h240q91 0 149.5 -19t89 -60.5t35 -106.5t-13.5 -156l-19 -98q-18 -90 -42.5 -150t-65 -95.5t-101.5 -50t-152 -14.5h-265zM234 655l-109 -560h148q70 0 115 14t72.5 41t42 67t24.5 93l24 122q10 52 11.5 93t-14.5 70t-54 44.5t-107 15.5h-153zM836 158
q-14 -15 -31.5 -34t-33.5 -35h424l-16 -89h-547l15 80l461 512l65 69h-398l17 89h521l-15 -80zM1105 796h-87l-68 148h75l45 -80l77 80h84z" />
    <glyph glyph-name="uni01C5" unicode="&#x1c5;" horiz-adv-x="1160" 
d="M5 0l145 750h240q91 0 149.5 -19t89 -60.5t35 -106.5t-13.5 -156l-19 -98q-18 -90 -42.5 -150t-65 -95.5t-101.5 -50t-152 -14.5h-265zM234 655l-109 -560h148q70 0 115 14t72.5 41t42 67t24.5 93l24 122q10 52 11.5 93t-14.5 70t-54 44.5t-107 15.5h-153zM1143 473
l-290 -317q-28 -31 -70 -70h299l-16 -86h-419l14 79l293 318l65 69h-271l17 86h394zM1007 596h-87l-68 148h75l45 -80l77 80h84z" />
    <glyph glyph-name="uni01C6" unicode="&#x1c6;" horiz-adv-x="1062" 
d="M179 -10q-52 0 -86.5 16.5t-53 45t-22.5 66t4 79.5l30 151q12 60 34.5 101t55 66.5t74.5 37t93 11.5q18 0 39.5 -2.5t42 -7t38.5 -11t28 -13.5l43 214l105 30l-150 -774h-90l-2 43q-47 -26 -89.5 -39.5t-93.5 -13.5zM1045 473l-290 -317q-28 -31 -70 -70h299l-16 -86
h-419l14 79l293 318l65 69h-271l17 86h394zM378 130l62 315q-12 8 -27 14t-31.5 9.5t-32 5.5t-28.5 2q-33 0 -60.5 -6t-49 -21.5t-37 -42t-23.5 -68.5l-26 -133q-13 -63 4.5 -94.5t71.5 -31.5q40 0 88 13.5t89 37.5zM908 596h-87l-68 148h75l45 -80l77 80h84z" />
    <glyph glyph-name="uni01C7" unicode="&#x1c7;" horiz-adv-x="977" 
d="M252 750l-127 -652h356l-18 -98h-458l145 750h102zM976 748l-110 -569q-10 -51 -25 -87t-40.5 -59t-64.5 -34t-96 -11q-14 0 -30.5 1.5t-33.5 4t-31.5 5.5t-23.5 7l19 94q29 -10 57 -13t50 -3q50 0 78 23.5t40 85.5l108 555h103z" />
    <glyph glyph-name="uni01C8" unicode="&#x1c8;" horiz-adv-x="846" 
d="M252 750l-127 -652h356l-18 -98h-458l145 750h102zM810 552l-121 -620q-8 -43 -19.5 -72.5t-30 -48t-45 -26.5t-64.5 -8q-20 0 -47 2t-51 8l17 85q34 -6 75 -6q34 0 46.5 16t20.5 58l119 612h100zM830 655h-100l21 111h100z" />
    <glyph glyph-name="uni01C9" unicode="&#x1c9;" horiz-adv-x="519" 
d="M103 0h-100l145 744l105 30zM483 552l-121 -620q-8 -43 -19.5 -72.5t-30 -48t-45 -26.5t-64.5 -8q-20 0 -47 2t-51 8l17 85q34 -6 75 -6q34 0 46.5 16t20.5 58l119 612h100zM503 655h-100l21 111h100z" />
    <glyph glyph-name="uni01CA" unicode="&#x1ca;" horiz-adv-x="1116" 
d="M550 0h-110l-186 498q-8 23 -16.5 50t-16.5 61l-117 -609h-99l145 750h110l185 -497q5 -13 9 -24.5t8 -24t8 -28t8 -36.5l118 610h99zM1115 748l-110 -569q-10 -51 -25 -87t-40.5 -59t-64.5 -34t-96 -11q-14 0 -30.5 1.5t-33.5 4t-31.5 5.5t-23.5 7l19 94q29 -10 57 -13
t50 -3q50 0 78 23.5t40 85.5l108 555h103z" />
    <glyph glyph-name="uni01CB" unicode="&#x1cb;" horiz-adv-x="985" 
d="M550 0h-110l-186 498q-8 23 -16.5 50t-16.5 61l-117 -609h-99l145 750h110l185 -497q5 -13 9 -24.5t8 -24t8 -28t8 -36.5l118 610h99zM949 552l-121 -620q-8 -43 -19.5 -72.5t-30 -48t-45 -26.5t-64.5 -8q-20 0 -47 2t-51 8l17 85q34 -6 75 -6q34 0 46.5 16t20.5 58
l119 612h100zM969 655h-100l21 111h100z" />
    <glyph glyph-name="uni01CC" unicode="&#x1cc;" horiz-adv-x="866" 
d="M444 0h-100l72 373q10 49 0.5 75t-58.5 26q-36 0 -82 -12.5t-92 -38.5l-81 -423h-100l107 552h89l2 -43q43 25 88.5 40t89.5 15q45 0 75.5 -12t47.5 -34.5t21 -54t-3 -69.5zM830 552l-121 -620q-8 -43 -19.5 -72.5t-30 -48t-45 -26.5t-64.5 -8q-20 0 -47 2t-51 8l17 85
q34 -6 75 -6q34 0 46.5 16t20.5 58l119 612h100zM850 655h-100l21 111h100z" />
    <glyph glyph-name="uni01CD" unicode="&#x1cd;" horiz-adv-x="667" 
d="M585 0h-108l-33 211h-287l-112 -211h-108l411 750h100zM207 305h221l-27 195q-5 35 -10 67.5t-8 71.5q-17 -39 -34.5 -72t-35.5 -67zM448 796h-87l-68 148h75l45 -80l77 80h84z" />
    <glyph glyph-name="uni01CE" unicode="&#x1ce;" horiz-adv-x="532" 
d="M396 0h-87l-1 45q-33 -22 -77.5 -38.5t-104.5 -16.5q-77 0 -109.5 45.5t-15.5 129.5l3 15q10 49 31 79.5t53.5 47t77 22t100.5 5.5h94l6 29q6 31 6 53t-9 36t-29.5 20.5t-55.5 6.5q-32 0 -75.5 -8t-84.5 -22l16 85q45 17 87 23.5t81 6.5q62 0 98 -17t53 -45.5t18 -65.5
t-6 -77zM318 120l27 135h-83q-44 0 -72.5 -3t-46 -12t-26.5 -25.5t-15 -44.5l-3 -14q-17 -80 53 -80q18 0 39.5 3t43.5 9t43.5 14t39.5 18zM370 596h-87l-68 148h75l45 -80l77 80h84z" />
    <glyph glyph-name="uni01CF" unicode="&#x1cf;" horiz-adv-x="257" 
d="M107 0h-102l145 750h102zM251 796h-87l-68 148h75l45 -80l77 80h84z" />
    <glyph glyph-name="uni01D0" unicode="&#x1d0;" horiz-adv-x="242" 
d="M103 0h-100l107 552h100zM212 596h-87l-68 148h75l45 -80l77 80h84z" />
    <glyph glyph-name="uni01D1" unicode="&#x1d1;" horiz-adv-x="729" 
d="M670 319q-32 -163 -125 -247t-245 -84q-76 0 -132.5 22.5t-90 66t-44 107t5.5 144.5l20 104q32 162 125 246t246 84q76 0 132 -22.5t89.5 -66t44 -106.5t-5.5 -144zM586 421q13 67 7.5 113.5t-27.5 75.5t-58.5 42.5t-85.5 13.5t-91 -13.5t-75.5 -42.5t-57.5 -75.5
t-37 -113.5l-18 -92q-13 -67 -7 -113.5t28 -76t59 -42.5t85 -13q49 0 90.5 13t75 42.5t57.5 76t37 113.5zM502 796h-87l-68 148h75l45 -80l77 80h84z" />
    <glyph glyph-name="uni01D2" unicode="&#x1d2;" 
d="M500 238q-23 -121 -92.5 -184.5t-183.5 -63.5q-113 0 -166.5 67.5t-30.5 188.5l14 70q23 121 92.5 184.5t182.5 63.5q114 0 167.5 -67.5t30.5 -188.5zM414 312q17 89 -12.5 127t-92.5 38t-107 -38t-61 -127l-14 -70q-17 -89 12.5 -127t91.5 -38q64 0 108 38t61 127z
M381 596h-87l-68 148h75l45 -80l77 80h84z" />
    <glyph glyph-name="uni01D3" unicode="&#x1d3;" horiz-adv-x="716" 
d="M244 750l-90 -466q-11 -56 -7.5 -94t21.5 -61t51 -32.5t81 -9.5q50 0 87.5 9.5t64.5 32.5t45.5 61t29.5 94l90 466h104l-92 -477q-14 -75 -39 -128.5t-65.5 -88.5t-97.5 -51.5t-136 -16.5q-299 0 -240 302l89 460h104zM481 796h-87l-68 148h75l45 -80l77 80h84z" />
    <glyph glyph-name="uni01D4" unicode="&#x1d4;" horiz-adv-x="577" 
d="M105 552h100l-73 -372q-5 -24 -6 -43t4.5 -32t19 -19.5t38.5 -6.5q35 0 79.5 13.5t91.5 40.5l82 419h100l-107 -552h-89l-2 45q-42 -24 -83.5 -39.5t-91.5 -15.5q-45 0 -75.5 12.5t-47 35.5t-20.5 55t4 71zM371 596h-87l-68 148h75l45 -80l77 80h84z" />
    <glyph glyph-name="uni01D5" unicode="&#x1d5;" horiz-adv-x="716" 
d="M244 750l-90 -466q-11 -56 -7.5 -94t21.5 -61t51 -32.5t81 -9.5q50 0 87.5 9.5t64.5 32.5t45.5 61t29.5 94l90 466h104l-92 -477q-14 -75 -39 -128.5t-65.5 -88.5t-97.5 -51.5t-136 -16.5q-299 0 -240 302l89 460h104zM321 898h93l-20 -106h-93zM499 898h93l-20 -106h-93
zM341 1030h284l-16 -80h-284z" />
    <glyph glyph-name="uni01D6" unicode="&#x1d6;" horiz-adv-x="577" 
d="M105 552h100l-73 -372q-5 -24 -6 -43t4.5 -32t19 -19.5t38.5 -6.5q35 0 79.5 13.5t91.5 40.5l82 419h100l-107 -552h-89l-2 45q-42 -24 -83.5 -39.5t-91.5 -15.5q-45 0 -75.5 12.5t-47 35.5t-20.5 55t4 71zM231 820h284l-16 -80h-284zM215 698h93l-20 -106h-93zM393 698
h93l-20 -106h-93z" />
    <glyph glyph-name="uni01D7" unicode="&#x1d7;" horiz-adv-x="716" 
d="M244 750l-90 -466q-11 -56 -7.5 -94t21.5 -61t51 -32.5t81 -9.5q50 0 87.5 9.5t64.5 32.5t45.5 61t29.5 94l90 466h104l-92 -477q-14 -75 -39 -128.5t-65.5 -88.5t-97.5 -51.5t-136 -16.5q-299 0 -240 302l89 460h104zM507 1059h132l-136 -134h-108zM321 898h93l-20 -106
h-93zM499 898h93l-20 -106h-93z" />
    <glyph glyph-name="uni01D8" unicode="&#x1d8;" horiz-adv-x="577" 
d="M105 552h100l-73 -372q-5 -24 -6 -43t4.5 -32t19 -19.5t38.5 -6.5q35 0 79.5 13.5t91.5 40.5l82 419h100l-107 -552h-89l-2 45q-42 -24 -83.5 -39.5t-91.5 -15.5q-45 0 -75.5 12.5t-47 35.5t-20.5 55t4 71zM396 861h132l-136 -134h-108zM215 698h93l-20 -106h-93z
M393 698h93l-20 -106h-93z" />
    <glyph glyph-name="uni01D9" unicode="&#x1d9;" horiz-adv-x="716" 
d="M244 750l-90 -466q-11 -56 -7.5 -94t21.5 -61t51 -32.5t81 -9.5q50 0 87.5 9.5t64.5 32.5t45.5 61t29.5 94l90 466h104l-92 -477q-14 -75 -39 -128.5t-65.5 -88.5t-97.5 -51.5t-136 -16.5q-299 0 -240 302l89 460h104zM505 922h-87l-68 148h75l45 -80l77 80h84zM321 898
h93l-20 -106h-93zM499 898h93l-20 -106h-93z" />
    <glyph glyph-name="uni01DA" unicode="&#x1da;" horiz-adv-x="577" 
d="M105 552h100l-73 -372q-5 -24 -6 -43t4.5 -32t19 -19.5t38.5 -6.5q35 0 79.5 13.5t91.5 40.5l82 419h100l-107 -552h-89l-2 45q-42 -24 -83.5 -39.5t-91.5 -15.5q-45 0 -75.5 12.5t-47 35.5t-20.5 55t4 71zM400 729h-87l-68 148h75l45 -80l77 80h84zM215 698h93l-20 -106
h-93zM393 698h93l-20 -106h-93z" />
    <glyph glyph-name="uni01DB" unicode="&#x1db;" horiz-adv-x="716" 
d="M244 750l-90 -466q-11 -56 -7.5 -94t21.5 -61t51 -32.5t81 -9.5q50 0 87.5 9.5t64.5 32.5t45.5 61t29.5 94l90 466h104l-92 -477q-14 -75 -39 -128.5t-65.5 -88.5t-97.5 -51.5t-136 -16.5q-299 0 -240 302l89 460h104zM521 925h-102l-80 134h124zM321 898h93l-20 -106
h-93zM499 898h93l-20 -106h-93z" />
    <glyph glyph-name="uni01DC" unicode="&#x1dc;" horiz-adv-x="577" 
d="M105 552h100l-73 -372q-5 -24 -6 -43t4.5 -32t19 -19.5t38.5 -6.5q35 0 79.5 13.5t91.5 40.5l82 419h100l-107 -552h-89l-2 45q-42 -24 -83.5 -39.5t-91.5 -15.5q-45 0 -75.5 12.5t-47 35.5t-20.5 55t4 71zM402 727h-94l-73 135h114zM215 698h93l-20 -106h-93zM393 698
h93l-20 -106h-93z" />
    <glyph glyph-name="uni01DD" unicode="&#x1dd;" horiz-adv-x="569" 
d="M34 308h360l4 22q7 33 6 60.5t-14.5 46.5t-42 29.5t-77.5 10.5q-32 0 -74 -5t-84 -19l17 83q37 15 76.5 21.5t74.5 6.5q134 0 186.5 -63t26.5 -195l-12 -62q-14 -69 -39 -117.5t-59.5 -78.5t-77.5 -44t-92 -14q-54 0 -95.5 15t-67 47.5t-32.5 84t7 125.5zM116 229l-1 -7
q-6 -31 -4 -57.5t13.5 -46.5t34.5 -31.5t60 -11.5q35 0 62 11.5t46.5 31.5t31.5 46.5t18 57.5l1 7h-262z" />
    <glyph glyph-name="uni01DE" unicode="&#x1de;" horiz-adv-x="667" 
d="M585 0h-108l-33 211h-287l-112 -211h-108l411 750h100zM207 305h221l-27 195q-5 35 -10 67.5t-8 71.5q-17 -39 -34.5 -72t-35.5 -67zM297 898h93l-20 -106h-93zM475 898h93l-20 -106h-93zM316 1030h284l-16 -80h-284z" />
    <glyph glyph-name="uni01DF" unicode="&#x1df;" horiz-adv-x="532" 
d="M396 0h-87l-1 45q-33 -22 -77.5 -38.5t-104.5 -16.5q-77 0 -109.5 45.5t-15.5 129.5l3 15q10 49 31 79.5t53.5 47t77 22t100.5 5.5h94l6 29q6 31 6 53t-9 36t-29.5 20.5t-55.5 6.5q-32 0 -75.5 -8t-84.5 -22l16 85q45 17 87 23.5t81 6.5q62 0 98 -17t53 -45.5t18 -65.5
t-6 -77zM318 120l27 135h-83q-44 0 -72.5 -3t-46 -12t-26.5 -25.5t-15 -44.5l-3 -14q-17 -80 53 -80q18 0 39.5 3t43.5 9t43.5 14t39.5 18zM224 820h284l-16 -80h-284zM209 698h93l-20 -106h-93zM387 698h93l-20 -106h-93z" />
    <glyph glyph-name="uni01E0" unicode="&#x1e0;" horiz-adv-x="667" 
d="M585 0h-108l-33 211h-287l-112 -211h-108l411 750h100zM207 305h221l-27 195q-5 35 -10 67.5t-8 71.5q-17 -39 -34.5 -72t-35.5 -67zM386 907h96l-20 -106h-96zM316 1030h284l-16 -80h-284z" />
    <glyph glyph-name="uni01E1" unicode="&#x1e1;" horiz-adv-x="532" 
d="M396 0h-87l-1 45q-33 -22 -77.5 -38.5t-104.5 -16.5q-77 0 -109.5 45.5t-15.5 129.5l3 15q10 49 31 79.5t53.5 47t77 22t100.5 5.5h94l6 29q6 31 6 53t-9 36t-29.5 20.5t-55.5 6.5q-32 0 -75.5 -8t-84.5 -22l16 85q45 17 87 23.5t81 6.5q62 0 98 -17t53 -45.5t18 -65.5
t-6 -77zM318 120l27 135h-83q-44 0 -72.5 -3t-46 -12t-26.5 -25.5t-15 -44.5l-3 -14q-17 -80 53 -80q18 0 39.5 3t43.5 9t43.5 14t39.5 18zM287 708h96l-20 -106h-96zM205 820h284l-16 -80h-284z" />
    <glyph glyph-name="uni01E2" unicode="&#x1e2;" horiz-adv-x="1021" 
d="M1040 750l-18 -95h-360l-43 -221h328l-18 -93h-328l-48 -246h374l-18 -95h-477l41 211h-242l-171 -211h-123l611 750h492zM484 535l-184 -230h191l64 332q-22 -36 -39.5 -60t-31.5 -42zM571 920h284l-16 -80h-284z" />
    <glyph glyph-name="uni01E3" unicode="&#x1e3;" horiz-adv-x="872" 
d="M803 251h-359l-5 -27q-7 -33 -6 -60.5t14.5 -46.5t42 -29.5t77.5 -10.5q31 0 73 5t84 19l-17 -83q-37 -15 -81.5 -21.5t-79.5 -6.5q-60 0 -108 16t-70 57q-57 -35 -115 -54t-127 -19q-80 0 -110 48t-15 127l4 21q9 46 28.5 74t51 43.5t75.5 21t100 5.5h100l6 33
q6 31 6 52.5t-9 35.5t-29.5 20.5t-55.5 6.5q-32 0 -75.5 -8t-84.5 -22l16 86q47 16 86.5 23t81.5 7q61 0 94 -17t49 -50q33 32 80 49.5t96 17.5q54 0 96 -13.5t68 -45t33.5 -84t-7.5 -129.5zM318 120l26 131h-83q-42 0 -70 -2.5t-45.5 -10.5t-27.5 -24t-16 -44l-4 -19
q-8 -40 5.5 -57.5t46.5 -17.5q16 0 37.5 3t44.5 9t45.5 14t40.5 18zM721 330l1 7q6 31 4.5 57t-13.5 45t-35 29.5t-60 10.5q-69 0 -106 -38t-50 -98l-2 -13h261zM347 720h284l-16 -80h-284z" />
    <glyph glyph-name="uni01E4" unicode="&#x1e4;" horiz-adv-x="675" 
d="M337 258h151l12 59h-151l17 91h252l-29 -150h70l-16 -79h-70l-30 -156q-26 -10 -56.5 -16.5t-61.5 -10.5t-60 -6t-53 -2q-91 0 -151.5 18.5t-94 58t-40 102.5t10.5 152l24 121q18 94 49.5 156t78 99t110 52t146.5 15q22 0 47 -1t49.5 -4t47 -7.5t40.5 -11.5l-18 -90
q-15 5 -35 8.5t-43 6t-46 4t-44 1.5q-80 0 -129.5 -17.5t-79 -48t-44 -71.5t-23.5 -87l-26 -133q-11 -51 -12.5 -93.5t16.5 -72.5t62.5 -46.5t125.5 -16.5q29 0 61.5 3t60.5 11l17 83h-151z" />
    <glyph glyph-name="uni01E5" unicode="&#x1e5;" horiz-adv-x="594" 
d="M2 -14h346l13 70q-39 -20 -85 -31t-94 -11q-53 0 -87 17t-53 46t-23 67.5t5 82.5l23 119q23 118 87.5 168t163.5 50q19 0 41 -3t43 -9t39.5 -15.5t32.5 -21.5l15 37h89l-111 -566h76l-16 -77h-80q-13 -34 -32.5 -59t-49.5 -41t-71 -24t-96 -8q-17 0 -36 1t-38 3.5t-36 5
t-30 5.5l17 85q27 -7 61 -10.5t60 -3.5q56 0 90 10t54 36h-334zM378 144l57 291q-17 19 -54.5 30t-82.5 11q-25 0 -48.5 -6.5t-43.5 -22t-35 -42.5t-23 -69l-20 -102q-14 -67 3 -99t77 -32q43 0 85.5 11t84.5 30z" />
    <glyph glyph-name="Gcaron" unicode="&#x1e6;" horiz-adv-x="671" 
d="M611 648q-15 5 -35 8.5t-43 6t-46 4t-44 1.5q-80 0 -129.5 -17.5t-79 -48t-44 -71.5t-23.5 -87l-26 -133q-11 -51 -12.5 -93.5t16.5 -72.5t62.5 -46.5t125.5 -16.5q29 0 61.5 3t60.5 11l45 221h-151l17 91h252l-75 -385q-26 -10 -56.5 -16.5t-61.5 -10.5t-60 -6t-53 -2
q-91 0 -151.5 18.5t-94 58t-40 102.5t10.5 152l24 121q18 94 49.5 156t78 99t110 52t146.5 15q22 0 47 -1t49.5 -4t47 -7.5t40.5 -11.5zM485 796h-87l-68 148h75l45 -80l77 80h84z" />
    <glyph glyph-name="gcaron" unicode="&#x1e7;" horiz-adv-x="594" 
d="M178 -6q-53 0 -87 17t-53 46t-23 67.5t5 82.5l27 139q23 118 87.5 168t163.5 50q19 0 41 -3t43 -9t39.5 -15.5t32.5 -21.5l15 37h89l-113 -580q-10 -51 -28 -88t-49 -60.5t-77.5 -35t-112.5 -11.5q-17 0 -36 1t-38 3.5t-36 5t-30 5.5l17 85q27 -7 61 -10.5t60 -3.5
q42 0 71.5 5.5t49.5 19t32 36.5t18 58l10 54q-39 -20 -85 -31t-94 -11zM374 124l61 311q-17 19 -54.5 30t-82.5 11q-25 0 -48.5 -6.5t-43.5 -22t-35 -42.5t-23 -69l-24 -122q-14 -67 3 -99t77 -32q43 0 85.5 11t84.5 30zM368 596h-87l-68 148h75l45 -80l77 80h84z" />
    <glyph glyph-name="uni01E8" unicode="&#x1e8;" horiz-adv-x="639" 
d="M349 382l213 -382h-117l-180 331h-94l-64 -331h-102l145 750h102l-63 -325h84l282 325h124zM448 796h-87l-68 148h75l45 -80l77 80h84z" />
    <glyph glyph-name="uni01E9" unicode="&#x1e9;" horiz-adv-x="527" 
d="M252 774l-84 -427h58l206 205h123l-258 -251l155 -301h-109l-127 257h-65l-49 -257h-99l145 744zM430 796h-87l-68 148h75l45 -80l77 80h84z" />
    <glyph glyph-name="uni01EA" unicode="&#x1ea;" horiz-adv-x="729" 
d="M670 319q-26 -133 -92.5 -213t-173.5 -106h1q-44 -21 -73.5 -50t-34.5 -52l-2 -10q-4 -20 9 -28t39 -8q15 0 30 2t26 5l-15 -71q-14 -4 -29 -7.5t-42 -3.5q-65 0 -96.5 28.5t-23.5 70.5l2 10q6 32 33 59t58 43q-73 2 -126.5 26t-85.5 67.5t-41 105.5t6 141l20 104
q32 162 125 246t246 84q76 0 132 -22.5t89.5 -66t44 -106.5t-5.5 -144zM586 421q13 67 7.5 113.5t-27.5 75.5t-58.5 42.5t-85.5 13.5t-91 -13.5t-75.5 -42.5t-57.5 -75.5t-37 -113.5l-18 -92q-13 -67 -7 -113.5t28 -76t59 -42.5t85 -13q49 0 90.5 13t75 42.5t57.5 76
t37 113.5z" />
    <glyph glyph-name="uni01EB" unicode="&#x1eb;" horiz-adv-x="580" 
d="M498 238q-35 -179 -166 -229q-22 -11 -41 -25t-34 -29.5t-24.5 -30t-11.5 -26.5l-2 -10q-4 -20 9 -28t39 -8q15 0 30 2t26 5l-15 -71q-14 -4 -29 -7.5t-42 -3.5q-65 0 -96.5 28.5t-23.5 70.5l2 10q5 29 30.5 57.5t54.5 47.5q-104 5 -152.5 71.5t-26.5 183.5l14 70
q23 121 92.5 184.5t182.5 63.5q114 0 167.5 -67.5t30.5 -188.5zM412 312q17 89 -12.5 127t-92.5 38t-107 -38t-61 -127l-14 -70q-17 -89 12.5 -127t91.5 -38q64 0 108 38t61 127z" />
    <glyph glyph-name="uni01EC" unicode="&#x1ec;" horiz-adv-x="729" 
d="M670 319q-26 -133 -92.5 -213t-173.5 -106h1q-44 -21 -73.5 -50t-34.5 -52l-2 -10q-4 -20 9 -28t39 -8q15 0 30 2t26 5l-15 -71q-14 -4 -29 -7.5t-42 -3.5q-65 0 -96.5 28.5t-23.5 70.5l2 10q6 32 33 59t58 43q-73 2 -126.5 26t-85.5 67.5t-41 105.5t6 141l20 104
q32 162 125 246t246 84q76 0 132 -22.5t89.5 -66t44 -106.5t-5.5 -144zM586 421q13 67 7.5 113.5t-27.5 75.5t-58.5 42.5t-85.5 13.5t-91 -13.5t-75.5 -42.5t-57.5 -75.5t-37 -113.5l-18 -92q-13 -67 -7 -113.5t28 -76t59 -42.5t85 -13q49 0 90.5 13t75 42.5t57.5 76
t37 113.5zM326 920h284l-16 -80h-284z" />
    <glyph glyph-name="uni01ED" unicode="&#x1ed;" horiz-adv-x="580" 
d="M498 238q-35 -179 -166 -229q-22 -11 -41 -25t-34 -29.5t-24.5 -30t-11.5 -26.5l-2 -10q-4 -20 9 -28t39 -8q15 0 30 2t26 5l-15 -71q-14 -4 -29 -7.5t-42 -3.5q-65 0 -96.5 28.5t-23.5 70.5l2 10q5 29 30.5 57.5t54.5 47.5q-104 5 -152.5 71.5t-26.5 183.5l14 70
q23 121 92.5 184.5t182.5 63.5q114 0 167.5 -67.5t30.5 -188.5zM412 312q17 89 -12.5 127t-92.5 38t-107 -38t-61 -127l-14 -70q-17 -89 12.5 -127t91.5 -38q64 0 108 38t61 127zM198 720h284l-16 -80h-284z" />
    <glyph glyph-name="uni01EE" unicode="&#x1ee;" horiz-adv-x="604" 
d="M470 661h-385l17 89h512l-15 -81l-302 -319q87 2 137 -21.5t72.5 -62.5t23 -89t-9.5 -101l-9 -48q-11 -57 -38 -103.5t-72 -79t-108 -50.5t-147 -18t-151 14.5t-105 31.5l17 95q48 -19 107.5 -32t142.5 -13q58 0 102 13t75 36.5t49.5 55t26.5 69.5l6 32q9 43 9 77.5
t-15 59t-49.5 37.5t-95.5 13q-21 0 -50 -2t-57 -5l6 76zM402 796h-87l-68 148h75l45 -80l77 80h84z" />
    <glyph glyph-name="uni01EF" unicode="&#x1ef;" horiz-adv-x="468" 
d="M241 397q19 20 33 35t33 34h-282l17 86h406l-16 -79l-233 -241q73 -2 115.5 -21t62.5 -49.5t22 -69t-6 -79.5l-7 -39q-9 -44 -29.5 -80t-55.5 -62t-84 -40.5t-115 -14.5q-67 0 -124 11.5t-88 25.5l18 92q37 -15 84.5 -25.5t113.5 -10.5q83 0 128.5 32.5t56.5 89.5l4 26
q14 69 -15 100.5t-110 31.5q-17 0 -39.5 -1.5t-45.5 -3.5l-8 77zM310 596h-87l-68 148h75l45 -80l77 80h84z" />
    <glyph glyph-name="uni01F0" unicode="&#x1f0;" horiz-adv-x="274" 
d="M220 552l-121 -620q-8 -43 -19.5 -72.5t-30 -48t-45 -26.5t-64.5 -8q-20 0 -47 2t-51 8l17 85q34 -6 75 -6q34 0 46.5 16t20.5 58l119 612h100zM218 596h-87l-68 148h75l45 -80l77 80h84z" />
    <glyph glyph-name="uni01F1" unicode="&#x1f1;" horiz-adv-x="1276" 
d="M5 0l145 750h240q91 0 149.5 -19t89 -60.5t35 -106.5t-13.5 -156l-19 -98q-18 -90 -42.5 -150t-65 -95.5t-101.5 -50t-152 -14.5h-265zM234 655l-109 -560h148q70 0 115 14t72.5 41t42 67t24.5 93l24 122q10 52 11.5 93t-14.5 70t-54 44.5t-107 15.5h-153zM836 158
q-14 -15 -31.5 -34t-33.5 -35h424l-16 -89h-547l15 80l461 512l65 69h-398l17 89h521l-15 -80z" />
    <glyph glyph-name="uni01F2" unicode="&#x1f2;" horiz-adv-x="1160" 
d="M5 0l145 750h240q91 0 149.5 -19t89 -60.5t35 -106.5t-13.5 -156l-19 -98q-18 -90 -42.5 -150t-65 -95.5t-101.5 -50t-152 -14.5h-265zM234 655l-109 -560h148q70 0 115 14t72.5 41t42 67t24.5 93l24 122q10 52 11.5 93t-14.5 70t-54 44.5t-107 15.5h-153zM1143 473
l-290 -317q-28 -31 -70 -70h299l-16 -86h-419l14 79l293 318l65 69h-271l17 86h394z" />
    <glyph glyph-name="uni01F3" unicode="&#x1f3;" horiz-adv-x="1062" 
d="M179 -10q-52 0 -86.5 16.5t-53 45t-22.5 66t4 79.5l30 151q12 60 34.5 101t55 66.5t74.5 37t93 11.5q18 0 39.5 -2.5t42 -7t38.5 -11t28 -13.5l43 214l105 30l-150 -774h-90l-2 43q-47 -26 -89.5 -39.5t-93.5 -13.5zM1045 473l-290 -317q-28 -31 -70 -70h299l-16 -86
h-419l14 79l293 318l65 69h-271l17 86h394zM378 130l62 315q-12 8 -27 14t-31.5 9.5t-32 5.5t-28.5 2q-33 0 -60.5 -6t-49 -21.5t-37 -42t-23.5 -68.5l-26 -133q-13 -63 4.5 -94.5t71.5 -31.5q40 0 88 13.5t89 37.5z" />
    <glyph glyph-name="uni01F4" unicode="&#x1f4;" horiz-adv-x="671" 
d="M611 648q-15 5 -35 8.5t-43 6t-46 4t-44 1.5q-80 0 -129.5 -17.5t-79 -48t-44 -71.5t-23.5 -87l-26 -133q-11 -51 -12.5 -93.5t16.5 -72.5t62.5 -46.5t125.5 -16.5q29 0 61.5 3t60.5 11l45 221h-151l17 91h252l-75 -385q-26 -10 -56.5 -16.5t-61.5 -10.5t-60 -6t-53 -2
q-91 0 -151.5 18.5t-94 58t-40 102.5t10.5 152l24 121q18 94 49.5 156t78 99t110 52t146.5 15q22 0 47 -1t49.5 -4t47 -7.5t40.5 -11.5zM481 940h132l-136 -134h-108z" />
    <glyph glyph-name="uni01F5" unicode="&#x1f5;" horiz-adv-x="597" 
d="M181 -6q-53 0 -87 17t-53 46t-23 67.5t5 82.5l27 139q23 118 87.5 168t163.5 50q19 0 41 -3t43 -9t39.5 -15.5t32.5 -21.5l15 37h89l-113 -580q-10 -51 -28 -88t-49 -60.5t-77.5 -35t-112.5 -11.5q-17 0 -36 1t-38 3.5t-36 5t-30 5.5l17 85q27 -7 61 -10.5t60 -3.5
q42 0 71.5 5.5t49.5 19t32 36.5t18 58l10 54q-39 -20 -85 -31t-94 -11zM377 124l61 311q-17 19 -54.5 30t-82.5 11q-25 0 -48.5 -6.5t-43.5 -22t-35 -42.5t-23 -69l-24 -122q-14 -67 3 -99t77 -32q43 0 85.5 11t84.5 30zM354 740h132l-136 -134h-108z" />
    <glyph glyph-name="uni01F6" unicode="&#x1f6;" horiz-adv-x="1029" 
d="M706 750l-111 -569q-5 -24 -3 -43t13 -32t32 -20t54 -7q60 0 91.5 26t41.5 75l73 372h100l-74 -381q-17 -87 -72 -134t-164 -47q-46 0 -86 9.5t-67.5 31t-39.5 57t-2 87.5l33 166h-352l-66 -341h-102l145 750h102l-61 -313h352l61 313h102z" />
    <glyph glyph-name="uni01F7" unicode="&#x1f7;" horiz-adv-x="655" 
d="M149 750h102l-12 -62l128 50q25 10 53.5 17.5t52.5 7.5q57 0 91.5 -17t51.5 -46t18 -68.5t-8 -84.5l-16 -77q-9 -44 -24 -89t-39.5 -89t-61 -84.5t-89 -74t-122.5 -58t-161 -37.5l-50 -254h-102zM219 585l-87 -446q76 12 132 33.5t95.5 49t65.5 59t42 64t24.5 63.5
t14.5 57l19 91q12 57 -10 83.5t-60 26.5q-14 0 -28.5 -3.5t-31.5 -9.5z" />
    <glyph glyph-name="uni01F8" unicode="&#x1f8;" horiz-adv-x="700" 
d="M550 0h-110l-186 498q-8 23 -16.5 50t-16.5 61l-117 -609h-99l145 750h110l185 -497q5 -13 9 -24.5t8 -24t8 -28t8 -36.5l118 610h99zM516 806h-102l-80 134h124z" />
    <glyph glyph-name="uni01F9" unicode="&#x1f9;" horiz-adv-x="585" 
d="M444 0h-100l72 373q10 49 0.5 75t-58.5 26q-36 0 -82 -12.5t-92 -38.5l-81 -423h-100l107 552h89l2 -43q43 25 88.5 40t89.5 15q45 0 75.5 -12t47.5 -34.5t21 -54t-3 -69.5zM422 606h-102l-80 134h124z" />
    <glyph glyph-name="Aringacute" unicode="&#x1fa;" horiz-adv-x="667" 
d="M585 0h-108l-33 211h-287l-112 -211h-108l411 750h100zM207 305h221l-27 195q-5 35 -10 67.5t-8 71.5q-17 -39 -34.5 -72t-35.5 -67zM421 833q23 0 41 16.5t18 45.5q0 17 -11 28t-30 11q-23 0 -40.5 -18t-17.5 -45q0 -18 11 -28t29 -10zM414 779q-40 0 -65.5 26t-25.5 62
q0 25 10 47.5t27 38.5t39.5 25.5t47.5 9.5q41 0 66 -25.5t25 -61.5q0 -25 -9.5 -47t-26.5 -38.5t-39.5 -26.5t-48.5 -10zM501 1146h132l-136 -134h-108z" />
    <glyph glyph-name="aringacute" unicode="&#x1fb;" horiz-adv-x="532" 
d="M396 0h-87l-1 45q-33 -22 -77.5 -38.5t-104.5 -16.5q-77 0 -109.5 45.5t-15.5 129.5l3 15q10 49 31 79.5t53.5 47t77 22t100.5 5.5h94l6 29q6 31 6 53t-9 36t-29.5 20.5t-55.5 6.5q-32 0 -75.5 -8t-84.5 -22l16 85q45 17 87 23.5t81 6.5q62 0 98 -17t53 -45.5t18 -65.5
t-6 -77zM318 120l27 135h-83q-44 0 -72.5 -3t-46 -12t-26.5 -25.5t-15 -44.5l-3 -14q-17 -80 53 -80q18 0 39.5 3t43.5 9t43.5 14t39.5 18zM327 640q23 0 41 16.5t18 45.5q0 17 -11 28t-30 11q-23 0 -40.5 -18t-17.5 -45q0 -18 11 -28t29 -10zM320 586q-40 0 -65.5 26
t-25.5 62q0 25 10 47.5t27 38.5t39.5 25.5t47.5 9.5q41 0 66 -25.5t25 -61.5q0 -25 -9.5 -47t-26.5 -38.5t-39.5 -26.5t-48.5 -10zM425 951h132l-136 -134h-108z" />
    <glyph glyph-name="AEacute" unicode="&#x1fc;" horiz-adv-x="1021" 
d="M1040 750l-18 -95h-360l-43 -221h328l-18 -93h-328l-48 -246h374l-18 -95h-477l41 211h-242l-171 -211h-123l611 750h492zM484 535l-184 -230h191l64 332q-22 -36 -39.5 -60t-31.5 -42zM687 940h132l-136 -134h-108z" />
    <glyph glyph-name="aeacute" unicode="&#x1fd;" horiz-adv-x="874" 
d="M805 251h-359l-5 -27q-7 -33 -6 -60.5t14.5 -46.5t42 -29.5t77.5 -10.5q31 0 73 5t84 19l-17 -83q-37 -15 -81.5 -21.5t-79.5 -6.5q-60 0 -108 16t-70 57q-57 -35 -115 -54t-127 -19q-80 0 -110 48t-15 127l4 21q9 46 28.5 74t51 43.5t75.5 21t100 5.5h100l6 33
q6 31 6 52.5t-9 35.5t-29.5 20.5t-55.5 6.5q-32 0 -75.5 -8t-84.5 -22l16 86q47 16 86.5 23t81.5 7q61 0 94 -17t49 -50q33 32 80 49.5t96 17.5q54 0 96 -13.5t68 -45t33.5 -84t-7.5 -129.5zM320 120l26 131h-83q-42 0 -70 -2.5t-45.5 -10.5t-27.5 -24t-16 -44l-4 -19
q-8 -40 5.5 -57.5t46.5 -17.5q16 0 37.5 3t44.5 9t45.5 14t40.5 18zM723 330l1 7q6 31 4.5 57t-13.5 45t-35 29.5t-60 10.5q-69 0 -106 -38t-50 -98l-2 -13h261zM527 740h132l-136 -134h-108z" />
    <glyph glyph-name="Oslashacute" unicode="&#x1fe;" horiz-adv-x="752" 
d="M680 319q-32 -163 -125 -247t-245 -84q-110 0 -177 46l-65 -77h-96l109 128q-30 43 -38.5 104t6.5 139l20 104q32 162 125 246t246 84q110 0 179 -49l67 79h96l-112 -131q58 -89 30 -238zM432 666q-49 0 -91 -13.5t-75.5 -42.5t-57.5 -75.5t-37 -113.5l-18 -92
q-19 -101 3 -157l395 462q-22 17 -52 24.5t-67 7.5zM596 421q19 95 -1 152l-394 -460q43 -29 117 -29q49 0 90.5 13t75 42.5t57.5 76t37 113.5zM508 940h132l-136 -134h-108z" />
    <glyph glyph-name="oslashacute" unicode="&#x1ff;" horiz-adv-x="599" 
d="M509 238q-23 -121 -92.5 -184.5t-183.5 -63.5q-73 0 -122 29l-52 -62h-90l91 108q-46 68 -24 181l14 70q23 121 92.5 184.5t182.5 63.5q78 0 128 -33l45 53h90l-86 -102q20 -32 26 -76t-5 -98zM318 477q-63 0 -107 -38t-61 -127l-14 -70q-11 -56 -3 -90l258 306
q-26 19 -73 19zM423 312q9 47 4 82l-254 -302q27 -15 67 -15q64 0 108 38t61 127zM394 740h132l-136 -134h-108z" />
    <glyph glyph-name="uni0200" unicode="&#x200;" horiz-adv-x="667" 
d="M585 0h-108l-33 211h-287l-112 -211h-108l411 750h100zM207 305h221l-27 195q-5 35 -10 67.5t-8 71.5q-17 -39 -34.5 -72t-35.5 -67zM370 806h-76l-43 134h94zM523 806h-74l-42 134h94z" />
    <glyph glyph-name="uni0201" unicode="&#x201;" horiz-adv-x="532" 
d="M396 0h-87l-1 45q-33 -22 -77.5 -38.5t-104.5 -16.5q-77 0 -109.5 45.5t-15.5 129.5l3 15q10 49 31 79.5t53.5 47t77 22t100.5 5.5h94l6 29q6 31 6 53t-9 36t-29.5 20.5t-55.5 6.5q-32 0 -75.5 -8t-84.5 -22l16 85q45 17 87 23.5t81 6.5q62 0 98 -17t53 -45.5t18 -65.5
t-6 -77zM318 120l27 135h-83q-44 0 -72.5 -3t-46 -12t-26.5 -25.5t-15 -44.5l-3 -14q-17 -80 53 -80q18 0 39.5 3t43.5 9t43.5 14t39.5 18zM288 606h-76l-43 134h94zM441 606h-74l-42 134h94z" />
    <glyph glyph-name="uni0202" unicode="&#x202;" horiz-adv-x="667" 
d="M585 0h-108l-33 211h-287l-112 -211h-108l411 750h100zM207 305h221l-27 195q-5 35 -10 67.5t-8 71.5q-17 -39 -34.5 -72t-35.5 -67zM429 944q31 0 54 -10.5t38 -29t21.5 -43.5t4.5 -55h-72q2 29 -10 47.5t-44 18.5t-49.5 -18.5t-25.5 -47.5h-72q6 28 17.5 53t30 44
t45 30t62.5 11z" />
    <glyph glyph-name="uni0203" unicode="&#x203;" horiz-adv-x="532" 
d="M396 0h-87l-1 45q-33 -22 -77.5 -38.5t-104.5 -16.5q-77 0 -109.5 45.5t-15.5 129.5l3 15q10 49 31 79.5t53.5 47t77 22t100.5 5.5h94l6 29q6 31 6 53t-9 36t-29.5 20.5t-55.5 6.5q-32 0 -75.5 -8t-84.5 -22l16 85q45 17 87 23.5t81 6.5q62 0 98 -17t53 -45.5t18 -65.5
t-6 -77zM318 120l27 135h-83q-44 0 -72.5 -3t-46 -12t-26.5 -25.5t-15 -44.5l-3 -14q-17 -80 53 -80q18 0 39.5 3t43.5 9t43.5 14t39.5 18zM353 744q31 0 54 -10.5t38 -29t21.5 -43.5t4.5 -55h-72q2 29 -10 47.5t-44 18.5t-49.5 -18.5t-25.5 -47.5h-72q6 28 17.5 53t30 44
t45 30t62.5 11z" />
    <glyph glyph-name="uni0204" unicode="&#x204;" horiz-adv-x="593" 
d="M612 750l-18 -95h-360l-43 -221h328l-18 -93h-328l-48 -246h374l-18 -95h-476l145 750h462zM373 806h-76l-43 134h94zM526 806h-74l-42 134h94z" />
    <glyph glyph-name="uni0205" unicode="&#x205;" horiz-adv-x="556" 
d="M486 246h-360l-4 -22q-7 -33 -6 -60.5t14.5 -46.5t42 -29.5t77.5 -10.5q32 0 74 5t84 19l-17 -83q-37 -15 -76.5 -21.5t-74.5 -6.5q-134 0 -186.5 63t-26.5 195l12 62q13 69 38 117.5t59.5 78.5t77.5 44t93 14q54 0 95.5 -15t67 -47.5t32.5 -84.5t-7 -125zM404 325l1 7
q6 31 4 57.5t-13.5 46.5t-34.5 31.5t-60 11.5q-35 0 -62 -11.5t-46.5 -31.5t-31.5 -46.5t-18 -57.5l-1 -7h262zM296 606h-76l-43 134h94zM449 606h-74l-42 134h94z" />
    <glyph glyph-name="uni0206" unicode="&#x206;" horiz-adv-x="593" 
d="M612 750l-18 -95h-360l-43 -221h328l-18 -93h-328l-48 -246h374l-18 -95h-476l145 750h462zM418 944q31 0 54 -10.5t38 -29t21.5 -43.5t4.5 -55h-72q2 29 -10 47.5t-44 18.5t-49.5 -18.5t-25.5 -47.5h-72q6 28 17.5 53t30 44t45 30t62.5 11z" />
    <glyph glyph-name="uni0207" unicode="&#x207;" horiz-adv-x="556" 
d="M486 246h-360l-4 -22q-7 -33 -6 -60.5t14.5 -46.5t42 -29.5t77.5 -10.5q32 0 74 5t84 19l-17 -83q-37 -15 -76.5 -21.5t-74.5 -6.5q-134 0 -186.5 63t-26.5 195l12 62q13 69 38 117.5t59.5 78.5t77.5 44t93 14q54 0 95.5 -15t67 -47.5t32.5 -84.5t-7 -125zM404 325l1 7
q6 31 4 57.5t-13.5 46.5t-34.5 31.5t-60 11.5q-35 0 -62 -11.5t-46.5 -31.5t-31.5 -46.5t-18 -57.5l-1 -7h262zM355 744q31 0 54 -10.5t38 -29t21.5 -43.5t4.5 -55h-72q2 29 -10 47.5t-44 18.5t-49.5 -18.5t-25.5 -47.5h-72q6 28 17.5 53t30 44t45 30t62.5 11z" />
    <glyph glyph-name="uni0208" unicode="&#x208;" horiz-adv-x="257" 
d="M107 0h-102l145 750h102zM167 806h-76l-43 134h94zM320 806h-74l-42 134h94z" />
    <glyph glyph-name="uni0209" unicode="&#x209;" horiz-adv-x="253" 
d="M119 0h-100l107 552h100zM145 606h-76l-43 134h94zM298 606h-74l-42 134h94z" />
    <glyph glyph-name="uni020A" unicode="&#x20a;" horiz-adv-x="257" 
d="M107 0h-102l145 750h102zM227 944q31 0 54 -10.5t38 -29t21.5 -43.5t4.5 -55h-72q2 29 -10 47.5t-44 18.5t-49.5 -18.5t-25.5 -47.5h-72q6 28 17.5 53t30 44t45 30t62.5 11z" />
    <glyph glyph-name="uni020B" unicode="&#x20b;" horiz-adv-x="248" 
d="M103 0h-100l107 552h100zM189 744q31 0 54 -10.5t38 -29t21.5 -43.5t4.5 -55h-72q2 29 -10 47.5t-44 18.5t-49.5 -18.5t-25.5 -47.5h-72q6 28 17.5 53t30 44t45 30t62.5 11z" />
    <glyph glyph-name="uni020C" unicode="&#x20c;" horiz-adv-x="729" 
d="M670 319q-32 -163 -125 -247t-245 -84q-76 0 -132.5 22.5t-90 66t-44 107t5.5 144.5l20 104q32 162 125 246t246 84q76 0 132 -22.5t89.5 -66t44 -106.5t-5.5 -144zM586 421q13 67 7.5 113.5t-27.5 75.5t-58.5 42.5t-85.5 13.5t-91 -13.5t-75.5 -42.5t-57.5 -75.5
t-37 -113.5l-18 -92q-13 -67 -7 -113.5t28 -76t59 -42.5t85 -13q49 0 90.5 13t75 42.5t57.5 76t37 113.5zM417 806h-76l-43 134h94zM570 806h-74l-42 134h94z" />
    <glyph glyph-name="uni020D" unicode="&#x20d;" horiz-adv-x="580" 
d="M498 238q-23 -121 -92.5 -184.5t-183.5 -63.5q-113 0 -166.5 67.5t-30.5 188.5l14 70q23 121 92.5 184.5t182.5 63.5q114 0 167.5 -67.5t30.5 -188.5zM412 312q17 89 -12.5 127t-92.5 38t-107 -38t-61 -127l-14 -70q-17 -89 12.5 -127t91.5 -38q64 0 108 38t61 127z
M314 606h-76l-43 134h94zM467 606h-74l-42 134h94z" />
    <glyph glyph-name="uni020E" unicode="&#x20e;" horiz-adv-x="729" 
d="M670 319q-32 -163 -125 -247t-245 -84q-76 0 -132.5 22.5t-90 66t-44 107t5.5 144.5l20 104q32 162 125 246t246 84q76 0 132 -22.5t89.5 -66t44 -106.5t-5.5 -144zM586 421q13 67 7.5 113.5t-27.5 75.5t-58.5 42.5t-85.5 13.5t-91 -13.5t-75.5 -42.5t-57.5 -75.5
t-37 -113.5l-18 -92q-13 -67 -7 -113.5t28 -76t59 -42.5t85 -13q49 0 90.5 13t75 42.5t57.5 76t37 113.5zM471 944q31 0 54 -10.5t38 -29t21.5 -43.5t4.5 -55h-72q2 29 -10 47.5t-44 18.5t-49.5 -18.5t-25.5 -47.5h-72q6 28 17.5 53t30 44t45 30t62.5 11z" />
    <glyph glyph-name="uni020F" unicode="&#x20f;" horiz-adv-x="580" 
d="M498 238q-23 -121 -92.5 -184.5t-183.5 -63.5q-113 0 -166.5 67.5t-30.5 188.5l14 70q23 121 92.5 184.5t182.5 63.5q114 0 167.5 -67.5t30.5 -188.5zM412 312q17 89 -12.5 127t-92.5 38t-107 -38t-61 -127l-14 -70q-17 -89 12.5 -127t91.5 -38q64 0 108 38t61 127z
M358 744q31 0 54 -10.5t38 -29t21.5 -43.5t4.5 -55h-72q2 29 -10 47.5t-44 18.5t-49.5 -18.5t-25.5 -47.5h-72q6 28 17.5 53t30 44t45 30t62.5 11z" />
    <glyph glyph-name="uni0210" unicode="&#x210;" horiz-adv-x="654" 
d="M150 750h258q58 0 104 -8.5t75.5 -31.5t40 -64t-1.5 -105l-7 -38q-8 -42 -20.5 -73.5t-31.5 -54t-46 -37t-64 -21.5l93 -317h-106l-85 306h-193l-59 -306h-102zM234 657l-50 -260h144q49 0 82 5t54.5 17t33.5 32.5t18 52.5l10 54q5 27 2.5 45.5t-16 30.5t-40.5 17.5
t-70 5.5h-168zM367 806h-76l-43 134h94zM520 806h-74l-42 134h94z" />
    <glyph glyph-name="uni0211" unicode="&#x211;" horiz-adv-x="385" 
d="M389 564l-20 -101q-46 -3 -95.5 -17t-93.5 -44l-77 -402h-100l107 552h89l-1 -56q13 10 33 22t44.5 22.5t53 17t60.5 6.5zM230 606h-76l-43 134h94zM383 606h-74l-42 134h94z" />
    <glyph glyph-name="uni0212" unicode="&#x212;" horiz-adv-x="654" 
d="M150 750h258q58 0 104 -8.5t75.5 -31.5t40 -64t-1.5 -105l-7 -38q-8 -42 -20.5 -73.5t-31.5 -54t-46 -37t-64 -21.5l93 -317h-106l-85 306h-193l-59 -306h-102zM234 657l-50 -260h144q49 0 82 5t54.5 17t33.5 32.5t18 52.5l10 54q5 27 2.5 45.5t-16 30.5t-40.5 17.5
t-70 5.5h-168zM434 944q31 0 54 -10.5t38 -29t21.5 -43.5t4.5 -55h-72q2 29 -10 47.5t-44 18.5t-49.5 -18.5t-25.5 -47.5h-72q6 28 17.5 53t30 44t45 30t62.5 11z" />
    <glyph glyph-name="uni0213" unicode="&#x213;" horiz-adv-x="385" 
d="M389 564l-20 -101q-46 -3 -95.5 -17t-93.5 -44l-77 -402h-100l107 552h89l-1 -56q13 10 33 22t44.5 22.5t53 17t60.5 6.5zM273 744q31 0 54 -10.5t38 -29t21.5 -43.5t4.5 -55h-72q2 29 -10 47.5t-44 18.5t-49.5 -18.5t-25.5 -47.5h-72q6 28 17.5 53t30 44t45 30t62.5 11z
" />
    <glyph glyph-name="uni0214" unicode="&#x214;" horiz-adv-x="716" 
d="M244 750l-90 -466q-11 -56 -7.5 -94t21.5 -61t51 -32.5t81 -9.5q50 0 87.5 9.5t64.5 32.5t45.5 61t29.5 94l90 466h104l-92 -477q-14 -75 -39 -128.5t-65.5 -88.5t-97.5 -51.5t-136 -16.5q-299 0 -240 302l89 460h104zM409 806h-76l-43 134h94zM562 806h-74l-42 134h94z
" />
    <glyph glyph-name="uni0215" unicode="&#x215;" horiz-adv-x="577" 
d="M105 552h100l-73 -372q-5 -24 -6 -43t4.5 -32t19 -19.5t38.5 -6.5q35 0 79.5 13.5t91.5 40.5l82 419h100l-107 -552h-89l-2 45q-42 -24 -83.5 -39.5t-91.5 -15.5q-45 0 -75.5 12.5t-47 35.5t-20.5 55t4 71zM302 606h-76l-43 134h94zM455 606h-74l-42 134h94z" />
    <glyph glyph-name="uni0216" unicode="&#x216;" horiz-adv-x="716" 
d="M244 750l-90 -466q-11 -56 -7.5 -94t21.5 -61t51 -32.5t81 -9.5q50 0 87.5 9.5t64.5 32.5t45.5 61t29.5 94l90 466h104l-92 -477q-14 -75 -39 -128.5t-65.5 -88.5t-97.5 -51.5t-136 -16.5q-299 0 -240 302l89 460h104zM458 944q31 0 54 -10.5t38 -29t21.5 -43.5t4.5 -55
h-72q2 29 -10 47.5t-44 18.5t-49.5 -18.5t-25.5 -47.5h-72q6 28 17.5 53t30 44t45 30t62.5 11z" />
    <glyph glyph-name="uni0217" unicode="&#x217;" horiz-adv-x="577" 
d="M105 552h100l-73 -372q-5 -24 -6 -43t4.5 -32t19 -19.5t38.5 -6.5q35 0 79.5 13.5t91.5 40.5l82 419h100l-107 -552h-89l-2 45q-42 -24 -83.5 -39.5t-91.5 -15.5q-45 0 -75.5 12.5t-47 35.5t-20.5 55t4 71zM356 744q31 0 54 -10.5t38 -29t21.5 -43.5t4.5 -55h-72
q2 29 -10 47.5t-44 18.5t-49.5 -18.5t-25.5 -47.5h-72q6 28 17.5 53t30 44t45 30t62.5 11z" />
    <glyph glyph-name="uni0218" unicode="&#x218;" horiz-adv-x="585" 
d="M507 191q-9 -46 -26.5 -83t-49.5 -63.5t-82 -40.5t-125 -14q-61 0 -122.5 8t-121.5 31l18 96q69 -26 130.5 -33.5t99.5 -7.5q47 0 78.5 8t52 23t31 36.5t15.5 47.5q5 25 5 44t-10 33.5t-31.5 26t-60.5 22.5l-85 23q-80 22 -115 74.5t-17 144.5q10 51 29.5 88t52.5 60
t80.5 34t112.5 11q27 0 56 -1.5t56.5 -5t51.5 -8t40 -10.5l-18 -88q-39 11 -86.5 15.5t-87.5 4.5q-52 0 -85.5 -6.5t-54.5 -20t-31 -35t-16 -52.5q-5 -25 -3.5 -43t10.5 -32t27.5 -24t47.5 -18l83 -23q59 -16 93 -38t49.5 -49.5t16 -61t-7.5 -73.5zM185 -56h116l-96 -177
h-92z" />
    <glyph glyph-name="uni0219" unicode="&#x219;" horiz-adv-x="450" 
d="M378 145q-7 -35 -19.5 -63.5t-37 -48.5t-63.5 -31.5t-97 -11.5q-20 0 -44 2t-49.5 5.5t-50.5 10t-45 15.5l18 87q49 -21 95 -27.5t77 -6.5q61 0 86.5 18t32.5 54q3 18 4 31t-5.5 23t-22.5 18t-47 16l-38 10q-80 21 -106.5 60.5t-13.5 106.5q7 38 22 66.5t40 47t62 28
t90 9.5q43 0 84.5 -5t66.5 -15l-17 -83q-27 9 -62.5 14t-64.5 5q-65 0 -92 -16t-34 -56q-4 -19 -3 -32t8.5 -22t23 -15.5t40.5 -13.5l38 -10q44 -12 71.5 -26.5t41.5 -35t16 -47t-5 -61.5zM114 -56h116l-96 -177h-92z" />
    <glyph glyph-name="uni021A" unicode="&#x21a;" horiz-adv-x="602" 
d="M73 654l18 96h565l-18 -96h-231l-127 -654h-103l127 654h-231zM163 -56h116l-96 -177h-92z" />
    <glyph glyph-name="uni021B" unicode="&#x21b;" horiz-adv-x="399" 
d="M377 465h-143l-60 -311q-8 -39 -0.5 -56.5t39.5 -17.5q23 0 48 4t45 12l-17 -83q-21 -13 -51.5 -18t-54.5 -5q-66 0 -96.5 36.5t-17.5 102.5l65 336h-88l18 87h88l22 114l105 30l-27 -144h143zM72 -56h116l-96 -177h-92z" />
    <glyph glyph-name="uni021C" unicode="&#x21c;" horiz-adv-x="538" 
d="M131 351l19 92l107 10q33 3 62.5 11.5t51 24.5t34 41t12.5 62q0 45 -39.5 60.5t-108.5 15.5q-37 0 -84 -6.5t-98 -22.5l19 92q39 14 89 22.5t95 8.5q112 0 172 -41.5t60 -117.5q0 -57 -25 -108.5t-88 -86.5q42 -20 58.5 -52t16.5 -67q0 -70 -28 -119.5t-73.5 -84
t-104 -55.5t-120.5 -33t-122.5 -17.5t-108.5 -8.5l20 99q55 4 108.5 10t101.5 16t89 25t70.5 37.5t46.5 54.5t17 75q0 37 -21.5 56t-59.5 26q-29 -6 -63 -9z" />
    <glyph glyph-name="uni021D" unicode="&#x21d;" horiz-adv-x="518" 
d="M81 154l17 86l107 10q33 3 62.5 12t51.5 26.5t35 43.5t13 63q0 45 -37.5 62.5t-110.5 17.5q-37 0 -84 -6.5t-98 -22.5l19 88q39 14 89 22.5t95 8.5q112 0 169.5 -41.5t57.5 -117.5q0 -57 -23.5 -108t-84.5 -86q41 -20 56.5 -53t15.5 -67q0 -69 -28 -118t-73.5 -83
t-104 -55t-120.5 -33t-122.5 -17.5t-108.5 -8.5l20 98q82 7 160.5 17t139.5 32.5t98 62t37 104.5q0 37 -21 56t-59 26q-31 -6 -63 -9z" />
    <glyph glyph-name="uni021E" unicode="&#x21e;" horiz-adv-x="711" 
d="M706 750l-145 -750h-102l66 341h-352l-66 -341h-102l145 750h102l-61 -313h352l61 313h102zM487 796h-87l-68 148h75l45 -80l77 80h84z" />
    <glyph glyph-name="uni021F" unicode="&#x21f;" horiz-adv-x="585" 
d="M444 0h-100l72 373q10 49 0.5 75t-58.5 26q-35 0 -80 -11.5t-93 -36.5l-82 -426h-100l145 744l105 30l-51 -263q45 26 92 39.5t85 13.5q90 0 123 -46.5t18 -123.5zM427 796h-87l-68 148h75l45 -80l77 80h84z" />
    <glyph glyph-name="uni0220" unicode="&#x220;" horiz-adv-x="713" 
d="M538 -216h-104l145 746q13 67 -6 102t-89 35q-34 0 -70 -8t-70.5 -20.5t-66.5 -28t-57 -29.5l-112 -581h-103l145 750h93l-5 -73q40 22 75 38t68.5 26.5t66.5 15.5t69 5q49 0 85.5 -15.5t58 -43.5t28.5 -67t-2 -86z" />
    <glyph glyph-name="uni0221" unicode="&#x221;" horiz-adv-x="671" 
d="M177 -10q-52 0 -86 17t-53 45.5t-23 66t4 79.5l30 151q23 114 86 164.5t170 50.5q18 0 39.5 -3t42.5 -7.5t39 -10.5t28 -13l43 214l105 30l-128 -657q-2 -10 -2 -15q43 19 84 19q45 0 70 -19.5t25 -61.5q0 -27 -10 -46t-27 -31.5t-39 -18t-45 -5.5q-41 0 -69.5 15
t-45.5 36q-22 -20 -41 -43t-35 -46h-80q25 39 57.5 78t70.5 71v9q-64 -40 -115 -54.5t-95 -14.5zM375 128l63 315q-12 8 -27 14t-31.5 10.5t-32 6.5t-28.5 2q-33 0 -60.5 -6t-49 -21.5t-37 -42t-23.5 -68.5l-26 -133q-13 -63 3.5 -94.5t72.5 -31.5q38 0 83 11.5t93 37.5z
M533 1q25 0 39.5 9t14.5 24q0 12 -7 19.5t-28 7.5q-19 0 -37.5 -6.5t-37.5 -17.5q6 -16 19.5 -26t36.5 -10z" />
    <glyph glyph-name="uni0222" unicode="&#x222;" horiz-adv-x="608" 
d="M282 343l-22 -8q-37 -14 -66 -29.5t-48.5 -34.5t-29.5 -42.5t-10 -54.5q0 -42 35 -68t113 -26q97 0 145 41.5t48 105.5q0 38 -28 65.5t-94 41.5zM441 762q41 -4 71.5 -18.5t50.5 -37t30 -51.5t10 -62q0 -42 -11 -74t-31.5 -57t-50 -44.5t-67.5 -37.5q59 -20 84 -60
t25 -89q0 -56 -22 -101t-62 -76.5t-96.5 -48.5t-125.5 -17q-63 0 -109 14.5t-75 39t-43 58t-14 71.5q0 75 42 127t138 83q-46 17 -68 57t-22 89q0 51 18 92.5t49.5 71.5t75 48t95.5 23l-17 -93q-62 -11 -91.5 -48.5t-29.5 -84.5q0 -35 20 -62.5t69 -39.5l63 -16l43 22
q27 13 47 27t34 31.5t21 40t7 53.5q0 30 -16 52t-59 29z" />
    <glyph glyph-name="uni0223" unicode="&#x223;" horiz-adv-x="575" 
d="M271 356l-22 -8q-74 -29 -111 -71.5t-37 -104.5q0 -21 7 -39.5t22.5 -32t41 -21t61.5 -7.5q48 0 82.5 13.5t57 36t33 51t10.5 58.5q0 38 -26.5 67t-89.5 49zM426 774q38 -3 65.5 -17t45 -35t25.5 -48t8 -56q0 -76 -42.5 -135t-121.5 -94q56 -20 81.5 -61.5t25.5 -87.5
q0 -51 -17.5 -96t-53 -79.5t-88.5 -54.5t-123 -20q-62 0 -105 13.5t-70 36.5t-39 53.5t-12 64.5q0 33 9.5 67.5t31 65.5t56 57t84.5 42q-45 21 -68 62.5t-23 89.5q0 47 16.5 87t46 71t70 50t87.5 24l-16 -81q-26 -6 -46 -20.5t-34 -34t-21.5 -43.5t-7.5 -48q0 -37 20 -64
t65 -42l47 -16l41 18q51 22 82 66t31 108q0 28 -14 49.5t-52 29.5z" />
    <glyph glyph-name="uni0224" unicode="&#x224;" horiz-adv-x="590" 
d="M150 158q-14 -15 -31.5 -34t-33.5 -35h424l-16 -89q-16 -93 -57 -133.5t-117 -40.5q-27 0 -51 3t-41 9l18 89q12 -4 28.5 -7t38.5 -3q38 0 54 19.5t25 63.5h-445l15 80l461 512l65 69h-398l17 89h521l-15 -80z" />
    <glyph glyph-name="uni0225" unicode="&#x225;" horiz-adv-x="477" 
d="M460 473l-290 -317q-28 -31 -70 -70h299l-11 -58l-5 -28q-8 -43 -20 -75.5t-31.5 -54.5t-48 -33t-68.5 -11q-26 0 -54 3t-45 9l17 84q13 -4 29.5 -7t37.5 -3q33 0 53.5 19.5t29.5 67.5v1h-319l14 79l293 318l65 69h-271l17 86h394z" />
    <glyph glyph-name="uni0226" unicode="&#x226;" horiz-adv-x="667" 
d="M585 0h-108l-33 211h-287l-112 -211h-108l411 750h100zM207 305h221l-27 195q-5 35 -10 67.5t-8 71.5q-17 -39 -34.5 -72t-35.5 -67zM382 918h96l-20 -106h-96z" />
    <glyph glyph-name="uni0227" unicode="&#x227;" horiz-adv-x="532" 
d="M396 0h-87l-1 45q-33 -22 -77.5 -38.5t-104.5 -16.5q-77 0 -109.5 45.5t-15.5 129.5l3 15q10 49 31 79.5t53.5 47t77 22t100.5 5.5h94l6 29q6 31 6 53t-9 36t-29.5 20.5t-55.5 6.5q-32 0 -75.5 -8t-84.5 -22l16 85q45 17 87 23.5t81 6.5q62 0 98 -17t53 -45.5t18 -65.5
t-6 -77zM318 120l27 135h-83q-44 0 -72.5 -3t-46 -12t-26.5 -25.5t-15 -44.5l-3 -14q-17 -80 53 -80q18 0 39.5 3t43.5 9t43.5 14t39.5 18zM297 718h96l-20 -106h-96z" />
    <glyph glyph-name="uni0228" unicode="&#x228;" horiz-adv-x="593" 
d="M199 -263q-20 0 -43.5 1.5t-43.5 5.5l14 70q14 -2 28.5 -3t33.5 -1q43 0 58.5 12t18.5 26l2 10q4 20 -10.5 29t-53.5 9h-29l21 104h-190l145 750h462l-18 -95h-360l-43 -221h328l-18 -93h-328l-48 -246h374l-18 -95h-199l-11 -54q52 -4 75 -28.5t15 -65.5l-2 -10
q-6 -31 -20 -51t-34.5 -32t-47.5 -17t-58 -5z" />
    <glyph glyph-name="uni0229" unicode="&#x229;" horiz-adv-x="556" 
d="M158 -263q-20 0 -43.5 1.5t-43.5 5.5l14 70q14 -2 28.5 -3t33.5 -1q43 0 58.5 12t18.5 26l2 10q4 20 -10.5 29t-53.5 9h-29l20 103q-168 36 -126 249l12 62q13 69 38 117.5t59.5 78.5t77.5 44t93 14q54 0 95.5 -15t67 -47.5t32.5 -84.5t-7 -125l-9 -46h-360l-4 -22
q-7 -33 -6 -60.5t14.5 -46.5t42 -29.5t77.5 -10.5q32 0 74 5t84 19l-17 -83q-37 -15 -76.5 -21.5t-74.5 -6.5h-1l-9 -44q52 -4 75 -28.5t15 -65.5l-2 -10q-6 -31 -20 -51t-34.5 -32t-47.5 -17t-58 -5zM404 325l1 7q6 31 4 57.5t-13.5 46.5t-34.5 31.5t-60 11.5
q-35 0 -62 -11.5t-46.5 -31.5t-31.5 -46.5t-18 -57.5l-1 -7h262z" />
    <glyph glyph-name="uni022A" unicode="&#x22a;" horiz-adv-x="729" 
d="M670 319q-32 -163 -125 -247t-245 -84q-76 0 -132.5 22.5t-90 66t-44 107t5.5 144.5l20 104q32 162 125 246t246 84q76 0 132 -22.5t89.5 -66t44 -106.5t-5.5 -144zM586 421q13 67 7.5 113.5t-27.5 75.5t-58.5 42.5t-85.5 13.5t-91 -13.5t-75.5 -42.5t-57.5 -75.5
t-37 -113.5l-18 -92q-13 -67 -7 -113.5t28 -76t59 -42.5t85 -13q49 0 90.5 13t75 42.5t57.5 76t37 113.5zM335 898h93l-20 -106h-93zM513 898h93l-20 -106h-93zM355 1030h284l-16 -80h-284z" />
    <glyph glyph-name="uni022B" unicode="&#x22b;" horiz-adv-x="580" 
d="M498 238q-23 -121 -92.5 -184.5t-183.5 -63.5q-113 0 -166.5 67.5t-30.5 188.5l14 70q23 121 92.5 184.5t182.5 63.5q114 0 167.5 -67.5t30.5 -188.5zM412 312q17 89 -12.5 127t-92.5 38t-107 -38t-61 -127l-14 -70q-17 -89 12.5 -127t91.5 -38q64 0 108 38t61 127z
M235 820h284l-16 -80h-284zM217 698h93l-20 -106h-93zM395 698h93l-20 -106h-93z" />
    <glyph glyph-name="uni022C" unicode="&#x22c;" horiz-adv-x="729" 
d="M670 319q-32 -163 -125 -247t-245 -84q-76 0 -132.5 22.5t-90 66t-44 107t5.5 144.5l20 104q32 162 125 246t246 84q76 0 132 -22.5t89.5 -66t44 -106.5t-5.5 -144zM586 421q13 67 7.5 113.5t-27.5 75.5t-58.5 42.5t-85.5 13.5t-91 -13.5t-75.5 -42.5t-57.5 -75.5
t-37 -113.5l-18 -92q-13 -67 -7 -113.5t28 -76t59 -42.5t85 -13q49 0 90.5 13t75 42.5t57.5 76t37 113.5zM511 790q-21 0 -34.5 9t-24 19.5l-19.5 19.5t-21 9q-17 0 -29 -18.5t-18 -36.5h-76q8 22 18.5 45.5t25 42t34.5 30.5t46 12q21 0 35 -9t25 -19.5t20.5 -19.5t21.5 -9
q20 0 30 17.5t15 39.5h76q-6 -21 -16 -44.5t-25 -43t-35.5 -32t-48.5 -12.5zM355 1030h284l-16 -80h-284z" />
    <glyph glyph-name="uni022D" unicode="&#x22d;" horiz-adv-x="580" 
d="M498 238q-23 -121 -92.5 -184.5t-183.5 -63.5q-113 0 -166.5 67.5t-30.5 188.5l14 70q23 121 92.5 184.5t182.5 63.5q114 0 167.5 -67.5t30.5 -188.5zM412 312q17 89 -12.5 127t-92.5 38t-107 -38t-61 -127l-14 -70q-17 -89 12.5 -127t91.5 -38q64 0 108 38t61 127z
M392 582q-21 0 -34.5 9t-24 19.5l-19.5 19.5t-21 9q-17 0 -29 -18.5t-18 -36.5h-76q8 22 18.5 45.5t25 42t34.5 30.5t46 12q21 0 35 -9t25 -19.5t20.5 -19.5t21.5 -9q20 0 30 17.5t15 39.5h76q-6 -21 -16 -44.5t-25 -43t-35.5 -32t-48.5 -12.5zM235 820h284l-16 -80h-284z
" />
    <glyph glyph-name="uni022E" unicode="&#x22e;" horiz-adv-x="729" 
d="M670 319q-32 -163 -125 -247t-245 -84q-76 0 -132.5 22.5t-90 66t-44 107t5.5 144.5l20 104q32 162 125 246t246 84q76 0 132 -22.5t89.5 -66t44 -106.5t-5.5 -144zM586 421q13 67 7.5 113.5t-27.5 75.5t-58.5 42.5t-85.5 13.5t-91 -13.5t-75.5 -42.5t-57.5 -75.5
t-37 -113.5l-18 -92q-13 -67 -7 -113.5t28 -76t59 -42.5t85 -13q49 0 90.5 13t75 42.5t57.5 76t37 113.5zM425 918h96l-20 -106h-96z" />
    <glyph glyph-name="uni022F" unicode="&#x22f;" horiz-adv-x="580" 
d="M498 238q-23 -121 -92.5 -184.5t-183.5 -63.5q-113 0 -166.5 67.5t-30.5 188.5l14 70q23 121 92.5 184.5t182.5 63.5q114 0 167.5 -67.5t30.5 -188.5zM412 312q17 89 -12.5 127t-92.5 38t-107 -38t-61 -127l-14 -70q-17 -89 12.5 -127t91.5 -38q64 0 108 38t61 127z
M308 718h96l-20 -106h-96z" />
    <glyph glyph-name="uni0230" unicode="&#x230;" horiz-adv-x="729" 
d="M670 319q-32 -163 -125 -247t-245 -84q-76 0 -132.5 22.5t-90 66t-44 107t5.5 144.5l20 104q32 162 125 246t246 84q76 0 132 -22.5t89.5 -66t44 -106.5t-5.5 -144zM586 421q13 67 7.5 113.5t-27.5 75.5t-58.5 42.5t-85.5 13.5t-91 -13.5t-75.5 -42.5t-57.5 -75.5
t-37 -113.5l-18 -92q-13 -67 -7 -113.5t28 -76t59 -42.5t85 -13q49 0 90.5 13t75 42.5t57.5 76t37 113.5zM354 1030h284l-16 -80h-284zM424 908h96l-20 -106h-96z" />
    <glyph glyph-name="uni0231" unicode="&#x231;" horiz-adv-x="580" 
d="M498 238q-23 -121 -92.5 -184.5t-183.5 -63.5q-113 0 -166.5 67.5t-30.5 188.5l14 70q23 121 92.5 184.5t182.5 63.5q114 0 167.5 -67.5t30.5 -188.5zM412 312q17 89 -12.5 127t-92.5 38t-107 -38t-61 -127l-14 -70q-17 -89 12.5 -127t91.5 -38q64 0 108 38t61 127z
M235 820h284l-16 -80h-284zM307 708h96l-20 -106h-96z" />
    <glyph glyph-name="uni0232" unicode="&#x232;" horiz-adv-x="586" 
d="M336 316l-61 -316h-103l60 314l-153 436h107l68 -222q5 -17 9.5 -31.5t9 -31t10 -35t11.5 -42.5q27 48 49 80t42 60l152 222h115zM248 920h284l-16 -80h-284z" />
    <glyph glyph-name="uni0233" unicode="&#x233;" horiz-adv-x="523" 
d="M551 552l-427 -768h-102l118 217l-93 551h104l49 -346q2 -19 4.5 -45.5t3.5 -68.5h1q14 37 27.5 66.5t23.5 47.5l186 346h105zM186 720h284l-16 -80h-284z" />
    <glyph glyph-name="uni0234" unicode="&#x234;" horiz-adv-x="331" 
d="M153 204q8 1 16 1.5t17 0.5q37 0 62 -8.5t40 -22t21.5 -31t6.5 -36.5q0 -57 -38 -88.5t-101 -31.5q-55 0 -90 26t-44 71q-37 -31 -65 -85h-88q32 60 70.5 103.5t86.5 69.5l112 571l105 30zM182 140q-16 0 -41 -5q-3 -30 6 -51t41 -21q29 0 40.5 12.5t11.5 29.5
q0 14 -11 24.5t-47 10.5z" />
    <glyph glyph-name="uni0235" unicode="&#x235;" horiz-adv-x="654" 
d="M301 0h-88q32 60 70 103.5t87 69.5l39 200q5 24 6.5 43t-4 32t-18.5 19.5t-38 6.5q-36 0 -80.5 -12.5t-90.5 -38.5l-81 -423h-100l107 552h89l2 -43q43 25 87 40t88 15q45 0 75 -12t46.5 -34.5t19.5 -54t-4 -69.5l-37 -190q8 1 16 1.5t17 0.5q37 0 62 -8.5t40 -22
t21.5 -31t6.5 -36.5q0 -57 -38 -88.5t-101 -31.5q-55 0 -90 26t-44 71q-37 -31 -65 -85zM511 63q29 0 40.5 12.5t11.5 29.5q0 14 -11 24.5t-47 10.5q-16 0 -41 -5q-3 -30 6 -51t41 -21z" />
    <glyph glyph-name="uni0236" unicode="&#x236;" horiz-adv-x="364" 
d="M113 465h-88l18 87h88l22 114l105 30l-27 -144h143l-18 -87h-143l-50 -261q8 1 16 1.5t17 0.5q37 0 62 -8.5t40 -22t21.5 -31t6.5 -36.5q0 -57 -38 -88.5t-101 -31.5q-55 0 -89.5 26t-44.5 71q-37 -31 -65 -85h-88q32 60 70.5 103.5t86.5 69.5zM198 63q29 0 40.5 12.5
t11.5 29.5q0 14 -11 24.5t-47 10.5q-16 0 -41 -5q-3 -30 6 -51t41 -21z" />
    <glyph glyph-name="uni0237" unicode="&#x237;" horiz-adv-x="266" 
d="M230 552l-121 -620q-8 -43 -19.5 -72.5t-30 -48t-45 -26.5t-64.5 -8q-20 0 -47 2t-51 8l17 85q34 -6 75 -6q34 0 46.5 16t20.5 58l119 612h100z" />
    <glyph glyph-name="uni0238" unicode="&#x238;" horiz-adv-x="945" 
d="M177 -10q-52 0 -86.5 16.5t-53 45t-22.5 66t4 79.5l30 151q12 60 34.5 101t55 66.5t74.5 37t93 11.5q44 0 83 -11t64 -28l43 219l105 30l-51 -263q35 20 80 36.5t102 16.5q49 0 82.5 -17t52 -46t23.5 -66.5t-3 -79.5l-27 -142q-10 -54 -27.5 -96t-46.5 -70.5t-71 -43
t-102 -14.5q-17 0 -38.5 3t-44 9t-44 15.5t-37.5 23.5l-13 -40h-74l-2 43q-47 -26 -89.5 -39.5t-93.5 -13.5zM376 130l62 315q-12 8 -27 14t-31.5 9.5t-32 5.5t-28.5 2q-33 0 -60.5 -6t-49 -21.5t-37 -42t-23.5 -68.5l-26 -133q-13 -63 4.5 -94.5t71.5 -31.5q40 0 88 13.5
t89 37.5zM533 426l-60 -306q26 -22 63 -32.5t70 -10.5q71 0 106 39.5t51 120.5l19 97q14 71 -1.5 105.5t-78.5 34.5q-45 0 -90 -15t-79 -33z" />
    <glyph glyph-name="uni0239" unicode="&#x239;" horiz-adv-x="948" 
d="M309 -216l48 248q-39 -20 -90 -31t-99 -11q-52 0 -85 15.5t-50 43t-19.5 64.5t6.5 80l28 143q23 118 92.5 173t168.5 55q19 0 41 -3.5t42.5 -9.5t37 -15t25.5 -21l15 37h78l1 -44q42 23 91.5 39.5t102.5 16.5q48 0 80 -16t49.5 -43t21.5 -63t-4 -76l-28 -146
q-23 -119 -91.5 -174.5t-183.5 -55.5q-13 0 -30.5 1.5t-36 5t-36 8t-30.5 10.5l-45 -231h-100zM374 114l61 316q-17 19 -54 32.5t-82 13.5q-26 0 -49.5 -6.5t-43 -22t-34.5 -42.5t-23 -69l-25 -126q-7 -33 -7 -58t9 -41t28 -24t50 -8q41 0 84.5 8.5t85.5 26.5zM533 422
l-62 -322q27 -11 61.5 -17t63.5 -6q46 0 76 13t48.5 35t28 49.5t15.5 56.5l21 104q6 33 6.5 59t-8.5 43.5t-28 27t-52 9.5q-38 0 -84.5 -15t-85.5 -37z" />
    <glyph glyph-name="uni023A" unicode="&#x23a;" horiz-adv-x="667" 
d="M585 0h-108l-33 211h-149l-168 -254h-79l168 254h-59l-112 -211h-108l411 750h100l27 -147l125 189h79l-187 -283zM207 305h71l124 187l-1 8q-5 35 -10 67.5t-8 71.5q-17 -39 -34.5 -72t-35.5 -67zM428 305l-13 89l-58 -89h71z" />
    <glyph glyph-name="uni023B" unicode="&#x23b;" horiz-adv-x="602" 
d="M605 647q-26 9 -72 15l-361 -545q22 -17 58 -25.5t91 -8.5q39 0 88 4.5t102 20.5l-17 -89q-48 -18 -97.5 -24.5t-89.5 -6.5q-128 0 -195 38l-45 -69h-79l74 113q-31 41 -36 103t12 150l24 122q18 94 50.5 155.5t79 97.5t108 50t139.5 14q19 0 39 -1t40 -3l22 34h79
l-30 -45q21 -5 34 -10zM436 668q-76 0 -124 -18t-77.5 -48.5t-44 -71.5t-23.5 -86l-26 -131q-8 -38 -11.5 -72.5t3.5 -63.5l325 491h-22z" />
    <glyph glyph-name="uni023C" unicode="&#x23c;" horiz-adv-x="501" 
d="M478 541l-15 -84q-27 9 -65 14l-244 -369q31 -23 99 -23q32 0 70 5t80 19l-17 -86q-16 -8 -36 -13.5t-40 -8.5t-38.5 -4.5t-31.5 -1.5q-89 0 -142 29l-40 -61h-76l69 104q-45 65 -20 187l12 62q13 69 37.5 117.5t60.5 79t83 44t107 13.5q13 0 25.5 -0.5t25.5 -1.5l35 52
h75l-42 -63q18 -5 28 -10zM144 314l-15 -76q-4 -20 -6 -37t-1 -32l203 307q-47 -1 -78.5 -14t-52.5 -35t-32.5 -51t-17.5 -62z" />
    <glyph glyph-name="uni023D" unicode="&#x23d;" horiz-adv-x="571" 
d="M257 750l-59 -303h165l-18 -88h-164l-51 -261h356l-18 -98h-458l69 359h-84l18 88h83l59 303h102z" />
    <glyph glyph-name="uni023E" unicode="&#x23e;" horiz-adv-x="602" 
d="M109 -43l100 209l95 488h-231l18 96h398l20 42h80l-20 -42h87l-18 -96h-115l-195 -407l-48 -247h-71l-20 -43h-80zM382 527l61 127h-36z" />
    <glyph glyph-name="uni023F" unicode="&#x23f;" horiz-adv-x="450" 
d="M378 145q-6 -29 -15.5 -53.5t-26 -43.5t-42 -32.5t-62.5 -19.5q1 -1 1.5 -2t2.5 -2q25 -21 49 -36t49.5 -24t53.5 -13t60 -4v-88q-31 0 -63.5 2t-66.5 11.5t-68.5 29t-68.5 54.5q-26 26 -45.5 42t-35.5 27q-33 4 -67 11t-61 19l18 87q14 -7 29 -11.5t29 -8.5l1 4
q10 -2 22.5 -5t28.5 -9q17 -2 33 -3t29 -1q61 0 86.5 18t32.5 54q3 18 4 31t-5.5 23t-22.5 18t-47 16l-38 10q-80 21 -106.5 60.5t-13.5 106.5q7 38 22 66.5t40 47t62 28t90 9.5q43 0 84.5 -5t66.5 -15l-17 -83q-27 9 -62.5 14t-64.5 5q-65 0 -92 -16t-34 -56q-4 -19 -3 -32
t8.5 -22t23 -15.5t40.5 -13.5l38 -10q44 -12 71.5 -26.5t41.5 -35t16 -47t-5 -61.5z" />
    <glyph glyph-name="uni0240" unicode="&#x240;" horiz-adv-x="477" 
d="M72 57q9 -3 16.5 -7.5t17.5 -11.5t23.5 -18t34.5 -28q18 -15 40.5 -30t48.5 -26.5t56.5 -17.5t64.5 -4l-16 -87q-68 -5 -133 20t-141 90q-35 30 -69 46t-51 17l14 79l293 318l65 69h-271l17 86h394l-16 -79l-290 -317q-7 -8 -19 -20.5t-26 -26.5l-28 -28t-25 -24z" />
    <glyph glyph-name="uni0241" unicode="&#x241;" horiz-adv-x="476" 
d="M84 0l38 200q7 38 19 68.5t31 57.5t46 51t63 50q23 16 39.5 29.5t27.5 28t18 31t12 40.5q5 30 3 50.5t-15 33t-38.5 18.5t-65.5 6q-50 0 -99 -12t-93 -29l17 92q38 16 85 29t101 13q65 0 108 -15t66.5 -42.5t29 -66t-3.5 -86.5q-9 -45 -24 -75t-33.5 -50.5t-39 -35
t-39.5 -28.5q-30 -22 -49.5 -40t-32.5 -35.5t-20.5 -37.5t-12.5 -47l-38 -198h-100z" />
    <glyph glyph-name="uni0242" unicode="&#x242;" horiz-adv-x="423" 
d="M78 0l19 100q6 34 14.5 58t22 43.5t34.5 38.5t54 43q21 15 33.5 25t21 20.5t13.5 24.5t10 38q9 47 -12.5 64t-81.5 17q-43 0 -87.5 -11.5t-82.5 -28.5l17 87q32 16 76 28.5t83 12.5q56 0 93.5 -12.5t58.5 -36t26.5 -57t-2.5 -75.5t-18.5 -65.5t-24 -39.5t-31 -27.5
t-39.5 -29.5q-26 -21 -41.5 -34.5t-24 -25.5t-13 -25.5t-8.5 -33.5l-18 -98h-92z" />
    <glyph glyph-name="uni0243" unicode="&#x243;" horiz-adv-x="640" 
d="M153 750h249q55 0 97 -9t68 -30t35 -56.5t-1 -88.5l-7 -38q-9 -45 -33.5 -79.5t-84.5 -53.5q30 -6 49.5 -21t30 -35.5t12.5 -45.5t-4 -52l-15 -77q-10 -54 -30 -86.5t-54 -49.5t-83 -22.5t-118 -5.5h-256l33 171h-77l16 86h77zM238 660l-45 -229h155q27 0 50.5 3.5
t42.5 14t32.5 30.5t19.5 53l7 41q5 28 2 45t-17 26.5t-39.5 12.5t-65.5 3h-142zM176 347l-17 -90h162l-16 -86h-163l-15 -81h149q49 0 80.5 4.5t51 16t29 31.5t15.5 50l10 52q11 56 -15 79.5t-107 23.5h-164z" />
    <glyph glyph-name="uni0244" unicode="&#x244;" horiz-adv-x="736" 
d="M254 750l-59 -304h373l59 304h104l-59 -304h79l-17 -86h-78l-17 -87q-14 -75 -39 -128.5t-65.5 -88.5t-97.5 -51.5t-136 -16.5q-299 0 -240 302l13 70h-76l17 86h76l59 304h104zM310 87q50 0 87.5 9.5t64.5 32.5t45.5 61t29.5 94l14 76h-373l-14 -76q-11 -56 -7.5 -94
t21.5 -61t51 -32.5t81 -9.5z" />
    <glyph glyph-name="uni0245" unicode="&#x245;" horiz-adv-x="666" 
d="M473 0l-74 474q-7 37 -12.5 73.5t-8.5 79.5q-17 -42 -36.5 -79t-39.5 -74l-260 -474h-111l416 750h102l130 -750h-106z" />
    <glyph glyph-name="uni0246" unicode="&#x246;" horiz-adv-x="593" 
d="M491 750l28 42h79l-28 -42h42l-18 -95h-87l-146 -221h158l-18 -93h-201l-163 -246h362l-18 -95h-407l-28 -43h-79l42 63l141 730h341zM191 434h91l146 221h-194zM153 238l67 103h-47z" />
    <glyph glyph-name="uni0247" unicode="&#x247;" horiz-adv-x="556" 
d="M486 246h-200l-107 -161q14 -5 31.5 -6.5t39.5 -1.5q32 0 74 5t84 19l-17 -83q-37 -15 -76.5 -21.5t-74.5 -6.5q-67 0 -113 15l-32 -48h-76l52 79q-74 62 -44 212l12 62q13 69 38 117.5t59.5 78.5t77.5 44t93 14q58 0 102 -18l45 68h75l-68 -103q30 -32 39.5 -86
t-5.5 -133zM301 479q-35 0 -62 -11.5t-46.5 -31.5t-31.5 -46.5t-18 -57.5l-1 -7h121l95 143q-24 11 -57 11zM122 224q-7 -32 -6.5 -58t11.5 -45l83 125h-84zM404 325l1 7q5 26 4.5 48.5t-7.5 41.5l-64 -97h66z" />
    <glyph glyph-name="uni0248" unicode="&#x248;" horiz-adv-x="397" 
d="M396 748l-59 -302h85l-17 -86h-84l-35 -181q-10 -51 -25 -87t-40.5 -59t-64.5 -34t-96 -11q-14 0 -30.5 1.5t-33.5 4t-31.5 5.5t-23.5 7l19 94q29 -10 57 -13t50 -3q50 0 78 23.5t40 85.5l32 167h-154l17 86h154l59 302h103z" />
    <glyph glyph-name="uni0249" unicode="&#x249;" horiz-adv-x="283" 
d="M230 552l-38 -196h99l-16 -86h-100l-66 -338q-8 -43 -19.5 -72.5t-30 -48t-45 -26.5t-64.5 -8q-20 0 -47 2t-51 8l17 85q34 -6 75 -6q34 0 46.5 16t20.5 58l64 330h-106l16 86h107l38 196h100zM250 655h-100l21 111h100z" />
    <glyph glyph-name="uni024A" unicode="&#x24a;" horiz-adv-x="704" 
d="M699 747l-149 -768q-12 -59 -3.5 -83t50.5 -24q28 0 42 3.5t31 9.5l-18 -92q-12 -4 -23 -6.5t-22 -4.5t-24.5 -3t-31.5 -1q-41 0 -66 13t-36.5 39t-10.5 64.5t11 89.5l13 65q-49 -26 -112.5 -42.5t-129.5 -16.5q-71 0 -112 23.5t-59.5 62.5t-18.5 89t10 104l46 233
q15 74 42 124t66 80t89.5 43t112.5 13q49 0 101.5 -15t91.5 -47l19 47h91zM570 606q-23 26 -72.5 45t-109.5 19q-35 0 -67.5 -8t-59 -29t-46.5 -57.5t-31 -93.5l-43 -223q-9 -46 -9 -79.5t12 -55t37.5 -32t66.5 -10.5q57 0 117.5 15.5t114.5 42.5z" />
    <glyph glyph-name="uni024B" unicode="&#x24b;" horiz-adv-x="595" 
d="M178 -10q-53 0 -87 17t-53 46t-23 67.5t5 82.5l28 143q23 118 87.5 168t163.5 50q19 0 41 -3t43 -9t39.5 -15.5t32.5 -21.5l15 37h89l-118 -605q-9 -48 2 -66t44 -18q23 0 38 2.5t30 7.5l-17 -84q-20 -6 -40 -9t-49 -3q-69 0 -97 40.5t-11 129.5l16 85q-39 -20 -85 -31
t-94 -11zM374 120l62 315q-17 19 -54.5 30t-82.5 11q-25 0 -48.5 -6.5t-43.5 -22t-35 -42.5t-23 -69l-25 -126q-14 -67 3 -99t77 -32q43 0 85.5 11t84.5 30z" />
    <glyph glyph-name="uni024C" unicode="&#x24c;" horiz-adv-x="664" 
d="M160 750h258q58 0 104 -8.5t75.5 -31.5t40 -64t-1.5 -105l-7 -38q-8 -42 -20.5 -73.5t-31.5 -54t-46 -37t-64 -21.5l93 -317h-106l-85 306h-193l-59 -306h-102l59 308h-89l17 88h89zM244 657l-50 -260h144q49 0 82 5t54.5 17t33.5 32.5t18 52.5l10 54q5 27 2.5 45.5
t-16 30.5t-40.5 17.5t-70 5.5h-168z" />
    <glyph glyph-name="uni024D" unicode="&#x24d;" horiz-adv-x="395" 
d="M399 564l-20 -101q-46 -3 -95.5 -17t-93.5 -44l-13 -65h130l-18 -88h-129l-47 -249h-100l48 249h-78l18 88h77l42 215h89l-1 -56q13 10 33 22t44.5 22.5t53 17t60.5 6.5z" />
    <glyph glyph-name="uni024E" unicode="&#x24e;" horiz-adv-x="606" 
d="M589 650h83l-16 -82h-127l-183 -252l-61 -316h-103l60 314l-89 254h-121l16 82h76l-35 100h107l31 -100h251l69 100h115zM304 388q27 48 49 80.5t42 60.5l27 39h-170l12 -39q10 -33 18.5 -63t21.5 -78z" />
    <glyph glyph-name="uni024F" unicode="&#x24f;" horiz-adv-x="540" 
d="M551 552l-86 -154h80v-84h-127l-294 -530h-102l118 217l-53 313h-92v84h78l-26 154h104l22 -154h190l83 154h105zM200 206q2 -19 4.5 -45.5t3.5 -68.5h1q14 37 27.5 66.5t23.5 47.5l58 108h-133z" />
    <glyph glyph-name="gravecomb" unicode="&#x300;" 
d="M354 606h-102l-80 134h124z" />
    <glyph glyph-name="acutecomb" unicode="&#x301;" 
d="M305 740h132l-136 -134h-108z" />
    <glyph glyph-name="uni0302" unicode="&#x302;" 
d="M273 754h87l68 -148h-75l-45 80l-78 -80h-83z" />
    <glyph glyph-name="tildecomb" unicode="&#x303;" 
d="M350 608q-21 0 -34.5 9t-24 19.5l-19.5 19.5t-21 9q-17 0 -29 -18.5t-18 -36.5h-76q8 22 18.5 45.5t25 42t34.5 30.5t46 12q21 0 35 -9t25 -19.5t20.5 -19.5t21.5 -9q20 0 30 17.5t15 39.5h76q-6 -21 -16 -44.5t-25 -43t-35.5 -32t-48.5 -12.5z" />
    <glyph glyph-name="uni0304" unicode="&#x304;" 
d="M169 720h284l-16 -80h-284z" />
    <glyph glyph-name="uni0306" unicode="&#x306;" 
d="M294 606q-31 0 -53.5 10.5t-36.5 29t-20.5 43.5t-4.5 55h69q-2 -29 10 -47.5t44 -18.5t50 18.5t26 47.5h74q-6 -28 -18 -53t-31 -44t-46 -30t-63 -11z" />
    <glyph glyph-name="uni0307" unicode="&#x307;" 
d="M262 718h96l-20 -106h-96z" />
    <glyph glyph-name="uni0308" unicode="&#x308;" 
d="M174 718h93l-20 -106h-93zM352 718h93l-20 -106h-93z" />
    <glyph glyph-name="hookabovecomb" unicode="&#x309;" 
d="M248 594l5 21q3 13 6 21.5t9 15.5t16.5 13.5t27.5 15.5q24 13 31 20t7 21q0 8 -8.5 13t-32.5 5q-19 0 -40.5 -4t-40.5 -11l12 57q17 7 38.5 11.5t44.5 4.5q50 0 73 -17t23 -46q0 -21 -6 -35t-14.5 -23.5t-18 -15.5t-17.5 -10q-14 -8 -22.5 -12.5t-13 -8.5t-7 -9t-3.5 -12
l-3 -15h-66z" />
    <glyph glyph-name="uni030A" unicode="&#x30a;" 
d="M295 643q23 0 41 16.5t18 45.5q0 17 -11 28t-30 11q-23 0 -40.5 -18t-17.5 -45q0 -18 11 -28t29 -10zM288 589q-40 0 -65.5 26t-25.5 62q0 25 10 47.5t27 38.5t39.5 25.5t47.5 9.5q41 0 66 -25.5t25 -61.5q0 -25 -9.5 -47t-26.5 -38.5t-39.5 -26.5t-48.5 -10z" />
    <glyph glyph-name="uni030B" unicode="&#x30b;" 
d="M370 740h94l-95 -134h-73zM213 740h95l-96 -134h-74z" />
    <glyph glyph-name="uni030C" unicode="&#x30c;" 
d="M330 596h-87l-68 148h75l45 -80l77 80h84z" />
    <glyph glyph-name="uni030F" unicode="&#x30f;" 
d="M284 606h-76l-43 134h94zM437 606h-74l-42 134h94z" />
    <glyph glyph-name="uni0310" unicode="&#x310;" 
d="M285 835h92l-19 -101h-92zM294 606q-31 0 -53.5 10.5t-36.5 29t-20.5 43.5t-4.5 55h69q-2 -29 10 -47.5t44 -18.5t50 18.5t26 47.5h74q-6 -28 -18 -53t-31 -44t-46 -30t-63 -11z" />
    <glyph glyph-name="uni0311" unicode="&#x311;" 
d="M307 744q31 0 54 -10.5t38 -29t21.5 -43.5t4.5 -55h-72q2 29 -10 47.5t-44 18.5t-49.5 -18.5t-25.5 -47.5h-72q6 28 17.5 53t30 44t45 30t62.5 11z" />
    <glyph glyph-name="uni0316" unicode="&#x316;" 
d="M355 -208h-105l-80 134h127z" />
    <glyph glyph-name="uni0317" unicode="&#x317;" 
d="M305 -74h132l-136 -134h-108z" />
    <glyph glyph-name="dotbelowcomb" unicode="&#x323;" 
d="M262 -87h96l-20 -106h-96z" />
    <glyph glyph-name="uni0324" unicode="&#x324;" 
d="M174 -87h93l-20 -106h-93zM352 -87h93l-20 -106h-93z" />
    <glyph glyph-name="uni0325" unicode="&#x325;" 
d="M295 -193q23 0 41 16.5t18 45.5q0 17 -11 28t-30 11q-23 0 -40.5 -18t-17.5 -45q0 -18 11 -28t29 -10zM288 -247q-40 0 -65.5 26t-25.5 62q0 25 10 47.5t27 38.5t39.5 25.5t47.5 9.5q41 0 66 -25.5t25 -61.5q0 -25 -9.5 -47t-26.5 -38.5t-39.5 -26.5t-48.5 -10z" />
    <glyph glyph-name="uni0326" unicode="&#x326;" 
d="M260 -56h116l-96 -177h-92z" />
    <glyph glyph-name="uni0327" unicode="&#x327;" 
d="M244 -263q-20 0 -43.5 1.5t-43.5 5.5l14 70q14 -2 28.5 -3t33.5 -1q43 0 58.5 12t18.5 26l2 10q4 20 -10.5 29t-53.5 9h-29l25 125h87l-15 -75q52 -4 75 -28.5t15 -65.5l-2 -10q-6 -31 -20 -51t-34.5 -32t-47.5 -17t-58 -5z" />
    <glyph glyph-name="uni0328" unicode="&#x328;" 
d="M301 -223q-65 0 -96.5 28.5t-23.5 70.5l2 10q4 19 16.5 37.5t30 33.5t37 26.5t37.5 16.5h89q-44 -21 -73.5 -50t-34.5 -52l-2 -10q-4 -20 9 -28t39 -8q15 0 30 2t26 5l-15 -71q-14 -4 -29 -7.5t-42 -3.5z" />
    <glyph glyph-name="uni032C" unicode="&#x32c;" 
d="M330 -215h-87l-68 148h75l45 -80l77 80h84z" />
    <glyph glyph-name="uni032D" unicode="&#x32d;" 
d="M273 -70h87l68 -148h-75l-45 80l-78 -80h-83z" />
    <glyph glyph-name="uni032E" unicode="&#x32e;" 
d="M294 -210q-31 0 -53.5 10.5t-36.5 29t-20.5 43.5t-4.5 55h69q-2 -29 10 -47.5t44 -18.5t50 18.5t26 47.5h74q-6 -28 -18 -53t-31 -44t-46 -30t-63 -11z" />
    <glyph glyph-name="uni032F" unicode="&#x32f;" 
d="M307 -75q31 0 54 -10.5t38 -29t21.5 -43.5t4.5 -55h-72q2 29 -10 47.5t-44 18.5t-49.5 -18.5t-25.5 -47.5h-72q6 28 17.5 53t30 44t45 30t62.5 11z" />
    <glyph glyph-name="uni0330" unicode="&#x330;" 
d="M350 -209q-21 0 -34.5 9t-24 19.5l-19.5 19.5t-21 9q-17 0 -29 -18.5t-18 -36.5h-76q8 22 18.5 45.5t25 42t34.5 30.5t46 12q21 0 35 -9t25 -19.5t20.5 -19.5t21.5 -9q20 0 30 17.5t15 39.5h76q-6 -21 -16 -44.5t-25 -43t-35.5 -32t-48.5 -12.5z" />
    <glyph glyph-name="uni0331" unicode="&#x331;" 
d="M169 -99h284l-16 -80h-284z" />
    <glyph glyph-name="uni0340" unicode="&#x340;" 
d="M354 606h-102l-80 134h124z" />
    <glyph glyph-name="uni0341" unicode="&#x341;" 
d="M305 740h132l-136 -134h-108z" />
    <glyph glyph-name="uni0342" unicode="&#x342;" 
d="M350 608q-21 0 -34.5 9t-24 19.5l-19.5 19.5t-21 9q-17 0 -29 -18.5t-18 -36.5h-76q8 22 18.5 45.5t25 42t34.5 30.5t46 12q21 0 35 -9t25 -19.5t20.5 -19.5t21.5 -9q20 0 30 17.5t15 39.5h76q-6 -21 -16 -44.5t-25 -43t-35.5 -32t-48.5 -12.5z" />
    <glyph glyph-name="uni0400" unicode="&#x400;" horiz-adv-x="586" 
d="M608 750l-17 -86h-358l-45 -234h327l-17 -85h-326l-50 -259h375l-16 -86h-477l143 750h461zM467 804h-86l-86 139h105z" />
    <glyph glyph-name="uni0401" unicode="&#x401;" horiz-adv-x="593" 
d="M612 750l-18 -95h-360l-43 -221h328l-18 -93h-328l-48 -246h374l-18 -95h-476l145 750h462zM284 918h93l-20 -106h-93zM462 918h93l-20 -106h-93z" />
    <glyph glyph-name="uni0402" unicode="&#x402;" horiz-adv-x="730" 
d="M561 258q2 14 3.5 27t1.5 25q0 28 -15 43t-54 15q-37 0 -81 -14.5t-92 -41.5l-59 -312h-101l126 660h-221l18 90h573l-18 -90h-251l-51 -267q42 23 93.5 41t99.5 18q72 0 104.5 -32.5t32.5 -88.5q0 -20 -5 -48l-63 -331q-12 -48 -23 -81t-28 -53.5t-44.5 -29t-70.5 -8.5
q-59 0 -98 12l16 81q19 -5 33.5 -7t37.5 -2q35 0 51.5 16.5t24.5 60.5z" />
    <glyph glyph-name="uni0403" unicode="&#x403;" horiz-adv-x="562" 
d="M106 0h-102l143 750h463l-17 -92h-362zM442 944h112l-132 -139h-93z" />
    <glyph glyph-name="uni0404" unicode="&#x404;" horiz-adv-x="598" 
d="M599 650q-34 10 -74 15t-93 5q-64 0 -110 -15t-78 -45t-52.5 -76.5t-33.5 -109.5h324l-18 -89h-322q-6 -31 -8 -58t-2 -51q0 -33 9 -60t30.5 -46t57.5 -29.5t90 -10.5q41 0 88.5 5.5t97.5 21.5l-17 -88q-23 -9 -49 -14.5t-52.5 -8.5t-51 -4.5t-42.5 -1.5q-71 0 -121 15
t-82 44.5t-47 72.5t-15 99q0 25 2.5 52.5t8.5 57.5l24 128q16 86 48.5 144t80 93t110 50t137.5 15q50 0 97.5 -6.5t79.5 -19.5z" />
    <glyph glyph-name="uni0405" unicode="&#x405;" horiz-adv-x="574" 
d="M512 233q-5 -60 -25 -105.5t-57 -76t-92.5 -46t-131.5 -15.5q-53 0 -111.5 8.5t-112.5 29.5l17 88q60 -24 114.5 -32t100.5 -8q44 0 80 8.5t61.5 28t39.5 50.5t14 76q0 18 -6.5 30t-20 22t-35 18.5t-51.5 17.5l-95 29q-124 37 -124 153q0 14 1 30t3 29q20 103 90 147.5
t200 44.5q54 0 104.5 -6.5t85.5 -17.5l-16 -81q-38 11 -84 15.5t-86 4.5q-47 0 -83.5 -7t-61 -23.5t-37.5 -44.5t-13 -70q0 -37 23.5 -57t75.5 -36l94 -29q74 -23 107 -56t34 -90q0 -7 -0.5 -14t-1.5 -15z" />
    <glyph glyph-name="uni0406" unicode="&#x406;" horiz-adv-x="254" 
d="M107 0h-103l143 750h102z" />
    <glyph glyph-name="uni0407" unicode="&#x407;" horiz-adv-x="253" 
d="M107 0h-103l143 750h102zM103 926h83l-19 -101h-83zM275 926h83l-19 -101h-83z" />
    <glyph glyph-name="uni0408" unicode="&#x408;" horiz-adv-x="407" 
d="M407 750l-109 -570q-10 -53 -26 -89t-40.5 -58.5t-60.5 -32.5t-87 -10q-15 0 -33.5 1.5t-37.5 4t-36 6t-28 7.5l18 90q31 -10 57.5 -13.5t55.5 -3.5q55 0 81.5 25.5t38.5 88.5l106 554h101z" />
    <glyph glyph-name="uni0409" unicode="&#x409;" horiz-adv-x="1043" 
d="M579 661h-246l-59 -308q-17 -92 -39.5 -159t-57.5 -110t-85 -63.5t-120 -20.5h-17l17 91h14q75 0 117 50.5t63 161.5l84 447h445l-48 -256h113q57 0 100 -6.5t71.5 -22t43 -42t14.5 -65.5q0 -26 -6 -56l-22 -116q-12 -62 -35.5 -98.5t-58 -56t-80.5 -25.5t-101 -6h-233z
M632 415l-65 -337h92q48 0 83.5 4t60 16.5t39 35.5t21.5 61l18 98q2 14 3.5 25.5t1.5 21.5q0 24 -8 38.5t-25.5 22.5t-45.5 11t-68 3h-107z" />
    <glyph glyph-name="uni040A" unicode="&#x40a;" horiz-adv-x="1028" 
d="M516 359h-344l-68 -359h-100l143 750h100l-57 -300h343l57 300h99l-57 -300h113q57 0 100 -6.5t71.5 -22t43 -42t14.5 -65.5q0 -21 -5 -49l-14 -79q-12 -62 -35.5 -98.5t-58 -56t-80.5 -25.5t-101 -6h-232zM617 371l-56 -293h123q40 0 69.5 6t50.5 19.5t34 36t19 55.5
l13 72q3 16 3 29q0 47 -34.5 61t-113.5 14h-108z" />
    <glyph glyph-name="uni040B" unicode="&#x40b;" horiz-adv-x="731" 
d="M511 0l50 258q2 9 3 17.5t1 16.5v17q0 29 -14.5 44t-53.5 15q-32 0 -78.5 -14t-94.5 -42l-59 -312h-101l126 660h-221l18 90h573l-18 -90h-251l-51 -267q42 23 93.5 41t99.5 18q72 0 104 -33.5t32 -88.5q0 -24 -4 -47l-54 -283h-100z" />
    <glyph glyph-name="uni040C" unicode="&#x40c;" horiz-adv-x="658" 
d="M369 377l205 -377h-117l-178 336h-109l-63 -336h-103l143 750h102l-62 -328h101l275 328h126zM459 943h112l-132 -139h-93z" />
    <glyph glyph-name="uni040D" unicode="&#x40d;" horiz-adv-x="711" 
d="M147 750h96l-115 -603q20 33 43.5 64.5t52.5 68.5l377 470h106l-143 -750h-95l115 604q-24 -38 -48 -70.5t-52 -67.5l-372 -466h-108zM498 804h-86l-86 139h105z" />
    <glyph glyph-name="uni040E" unicode="&#x40e;" horiz-adv-x="548" 
d="M77 0l111 197l-103 552h108l50 -305q3 -18 5.5 -34t5 -32.5t4.5 -35.5t4 -44q16 32 28.5 56t24 45.5t23.5 43.5t27 50l137 256h109l-425 -749h-109zM348 804q-54 0 -81 32.5t-27 82.5v14t2 15h57q-1 -6 -1.5 -11.5t-0.5 -10.5q0 -61 58 -61q32 0 55.5 22.5t33.5 60.5h62
q-7 -31 -20 -57t-32.5 -45.5t-46 -30.5t-59.5 -11z" />
    <glyph glyph-name="uni040F" unicode="&#x40f;" horiz-adv-x="699" 
d="M547 0h-223l-29 -154h-97l29 154h-223l143 750h101l-125 -657h341l125 657h101z" />
    <glyph glyph-name="uni0410" unicode="&#x410;" horiz-adv-x="667" 
d="M585 0h-108l-33 211h-287l-112 -211h-108l411 750h100zM207 305h221l-27 195q-5 35 -10 67.5t-8 71.5q-17 -39 -34.5 -72t-35.5 -67z" />
    <glyph glyph-name="uni0411" unicode="&#x411;" horiz-adv-x="637" 
d="M150 750h462l-18 -96h-360l-38 -190h174q123 0 169.5 -50.5t24.5 -162.5l-12 -61q-11 -56 -31.5 -92.5t-52.5 -58.5t-76.5 -30.5t-103.5 -8.5h-283zM292 93q76 0 112 23t46 74l15 78q6 29 3 49t-17 32.5t-42.5 18t-73.5 5.5h-156l-55 -280h168z" />
    <glyph glyph-name="uni0412" unicode="&#x412;" horiz-adv-x="633" 
d="M150 750h249q55 0 97 -9t68 -30t35 -56.5t-1 -88.5l-7 -38q-9 -45 -33.5 -79.5t-84.5 -53.5q30 -6 49.5 -21t30 -35.5t12.5 -45.5t-4 -52l-15 -77q-10 -54 -30 -86.5t-54 -49.5t-83 -22.5t-118 -5.5h-256zM173 347l-49 -257h149q49 0 80.5 4.5t51 16t29 31.5t15.5 50
l10 52q11 56 -15 79.5t-107 23.5h-164zM235 660l-45 -229h155q27 0 50.5 3.5t42.5 14t32.5 30.5t19.5 53l7 41q5 28 2 45t-17 26.5t-39.5 12.5t-65.5 3h-142z" />
    <glyph glyph-name="uni0413" unicode="&#x413;" horiz-adv-x="563" 
d="M614 750l-18 -96h-361l-129 -654h-101l147 750h462z" />
    <glyph glyph-name="uni0414" unicode="&#x414;" horiz-adv-x="735" 
d="M560 0h-512l-30 -154h-98l49 250h35q25 0 50 12t47.5 39t41.5 71t31 108l82 424h449l-128 -654h99l-49 -250h-97zM280 355q-9 -50 -18.5 -89t-22 -70.5t-31 -56t-45.5 -43.5h313l110 559h-247z" />
    <glyph glyph-name="uni0415" unicode="&#x415;" horiz-adv-x="593" 
d="M612 750l-18 -95h-360l-43 -221h328l-18 -93h-328l-48 -246h374l-18 -95h-476l145 750h462z" />
    <glyph glyph-name="uni0416" unicode="&#x416;" horiz-adv-x="904" 
d="M513 425h45l258 325h118l-302 -367l195 -383h-118l-163 331h-51l-64 -331h-102l64 331h-42l-291 -331h-127l342 383l-159 367h110l132 -325h53l63 325h102z" />
    <glyph glyph-name="uni0417" unicode="&#x417;" horiz-adv-x="611" 
d="M171 338l17 90h110q70 0 109.5 39.5t39.5 117.5q0 43 -30.5 62.5t-94.5 19.5q-47 0 -103.5 -9t-102.5 -25l18 94q39 14 95 24.5t116 10.5q57 0 96.5 -11.5t64 -32.5t35.5 -50.5t11 -64.5q0 -15 -3 -46t-17 -64.5t-43 -64t-82 -45.5q53 -14 76.5 -44t24.5 -78
q1 -72 -21 -124t-62.5 -85t-98 -48.5t-127.5 -15.5q-32 0 -64 3t-60.5 8.5t-53 12t-41.5 14.5l19 95q19 -8 44.5 -15t54 -12t57.5 -8t55 -3q53 0 90 12.5t59.5 35.5t32.5 55t10 71q0 26 -8.5 42t-24 24.5t-38.5 11.5t-52 3h-108z" />
    <glyph glyph-name="uni0418" unicode="&#x418;" horiz-adv-x="700" 
d="M150 750h99l-117 -601q12 24 29 50.5t37 52.5l382 498h115l-145 -750h-99l117 606q-15 -30 -33.5 -57.5t-35.5 -50.5l-380 -498h-114z" />
    <glyph glyph-name="uni0419" unicode="&#x419;" horiz-adv-x="700" 
d="M150 750h99l-117 -601q12 24 29 50.5t37 52.5l382 498h115l-145 -750h-99l117 606q-15 -30 -33.5 -57.5t-35.5 -50.5l-380 -498h-114zM433 804q-31 0 -53.5 10.5t-36.5 29t-20.5 43.5t-4.5 55h69q-2 -29 10 -47.5t44 -18.5t50 18.5t26 47.5h74q-6 -28 -18 -53t-31 -44
t-46 -30t-63 -11z" />
    <glyph glyph-name="uni041A" unicode="&#x41a;" horiz-adv-x="639" 
d="M349 382l213 -382h-117l-180 331h-94l-64 -331h-102l145 750h102l-63 -325h84l282 325h124z" />
    <glyph glyph-name="uni041B" unicode="&#x41b;" horiz-adv-x="692" 
d="M-35 96h9q33 0 61.5 10t52 38t43 78.5t35.5 131.5l77 396h444l-145 -750h-102l128 659h-242l-61 -312q-18 -92 -44 -157.5t-63 -107.5t-86 -62t-113 -20h-13z" />
    <glyph glyph-name="uni041C" unicode="&#x41c;" horiz-adv-x="840" 
d="M690 0h-102l99 512q6 29 18.5 69.5t24.5 78.5q-14 -45 -31 -82.5t-33 -68.5l-262 -509h-110l-69 510q-5 31 -4.5 64.5t3.5 84.5q-5 -37 -10 -77.5t-11 -70.5l-99 -511h-99l145 750h132l76 -536q4 -28 6 -56t3 -60q12 32 24.5 59.5t26.5 54.5l272 538h145z" />
    <glyph glyph-name="uni041D" unicode="&#x41d;" horiz-adv-x="711" 
d="M706 750l-145 -750h-102l66 341h-352l-66 -341h-102l145 750h102l-61 -313h352l61 313h102z" />
    <glyph glyph-name="uni041E" unicode="&#x41e;" horiz-adv-x="729" 
d="M670 319q-32 -163 -125 -247t-245 -84q-76 0 -132.5 22.5t-90 66t-44 107t5.5 144.5l20 104q32 162 125 246t246 84q76 0 132 -22.5t89.5 -66t44 -106.5t-5.5 -144zM586 421q13 67 7.5 113.5t-27.5 75.5t-58.5 42.5t-85.5 13.5t-91 -13.5t-75.5 -42.5t-57.5 -75.5
t-37 -113.5l-18 -92q-13 -67 -7 -113.5t28 -76t59 -42.5t85 -13q49 0 90.5 13t75 42.5t57.5 76t37 113.5z" />
    <glyph glyph-name="uni041F" unicode="&#x41f;" horiz-adv-x="711" 
d="M589 656h-354l-129 -656h-101l145 750h556l-145 -750h-101z" />
    <glyph glyph-name="uni0420" unicode="&#x420;" horiz-adv-x="638" 
d="M150 750h255q58 0 104.5 -8t76.5 -31t41 -63.5t-1 -104.5l-9 -47q-12 -61 -33.5 -99.5t-56.5 -60.5t-85 -30.5t-119 -8.5h-159l-57 -297h-102zM234 657l-52 -269h144q51 0 84.5 5t54.5 17t32 32.5t17 52.5l12 63q5 27 2.5 46t-16.5 30.5t-40.5 17t-69.5 5.5h-168z" />
    <glyph glyph-name="uni0421" unicode="&#x421;" horiz-adv-x="602" 
d="M605 647q-14 5 -33 9t-41.5 6.5t-47 4t-47.5 1.5q-76 0 -124 -18t-77.5 -48.5t-44 -71.5t-23.5 -86l-26 -131q-9 -47 -11.5 -89t14 -73.5t58 -49.5t119.5 -18q39 0 88 4.5t102 20.5l-17 -89q-48 -18 -97.5 -24.5t-89.5 -6.5q-91 0 -150.5 19t-92 60t-38 104t11.5 152
l24 122q18 94 50.5 155.5t79 97.5t108 50t139.5 14q48 0 99 -5.5t85 -19.5z" />
    <glyph glyph-name="uni0422" unicode="&#x422;" horiz-adv-x="602" 
d="M73 654l18 96h565l-18 -96h-231l-127 -654h-103l127 654h-231z" />
    <glyph glyph-name="uni0423" unicode="&#x423;" horiz-adv-x="523" 
d="M591 750l-416 -750h-108l108 199l-93 551h107l49 -331q2 -19 4.5 -45.5t3.5 -68.5h1q14 37 27.5 66.5t23.5 47.5l178 331h115z" />
    <glyph glyph-name="uni0424" unicode="&#x424;" horiz-adv-x="759" 
d="M501 762l-11 -61q67 -5 117.5 -22t81.5 -51t41 -87.5t-5 -130.5l-14 -72q-11 -57 -33.5 -104t-62.5 -82t-100.5 -56t-147.5 -26l-14 -71h-102l14 71q-79 4 -129.5 27.5t-77 62.5t-31 92t8.5 118l11 58q16 81 49 133t78 82.5t100 43t115 15.5l10 60h102zM133 362
q-11 -56 -7 -93.5t23 -60.5t52.5 -33.5t82.5 -13.5l87 450q-50 -3 -88 -14t-65.5 -34t-46.5 -60.5t-29 -92.5zM625 410q10 56 7 93t-21.5 60t-52.5 34t-85 14l-87 -450q48 3 86 13.5t66.5 33t47.5 60t30 94.5z" />
    <glyph glyph-name="uni0425" unicode="&#x425;" horiz-adv-x="640" 
d="M358 207q-11 29 -20 55.5t-21 63.5q-26 -36 -47 -64t-42 -55l-157 -207h-121l301 385l-147 365h113l72 -204q9 -25 17.5 -50t19.5 -60q26 35 43.5 59t38.5 52l152 203h120l-289 -365l154 -385h-109z" />
    <glyph glyph-name="uni0426" unicode="&#x426;" horiz-adv-x="708" 
d="M150 750h101l-127 -654h325l127 654h102l-127 -654h97l-49 -250h-97l31 154h-528z" />
    <glyph glyph-name="uni0427" unicode="&#x427;" horiz-adv-x="674" 
d="M524 0h-103l68 353q-60 -38 -133 -61t-153 -23q-46 0 -77.5 13t-49.5 36.5t-23.5 56t2.5 71.5l57 304h101l-58 -301q-11 -53 8 -72.5t66 -19.5q52 0 121.5 18t155.5 66l60 309h103z" />
    <glyph glyph-name="uni0428" unicode="&#x428;" horiz-adv-x="889" 
d="M150 750h101l-127 -654h214l127 654h102l-127 -654h215l127 654h102l-145 -750h-734z" />
    <glyph glyph-name="uni0429" unicode="&#x429;" horiz-adv-x="906" 
d="M150 750h101l-127 -654h211l127 654h102l-127 -654h210l127 654h102l-127 -654h97l-49 -250h-97l31 154h-726z" />
    </font>
</defs>
</svg>
